<?xml version="1.0" standalone="no"?> 
<!DOCTYPE svg PUBLIC "-//W3C//DTD SVG 1.1//EN" "http://www.w3.org/Graphics/SVG/1.1/DTD/svg11.dtd" >
<svg xmlns="http://www.w3.org/2000/svg">
<defs>
  <font id="icons" horiz-adv-x="640">
    <font-face font-family="icons"
      units-per-em="792" ascent="792"
      descent="0" />
    <missing-glyph horiz-adv-x="0" />
    <glyph glyph-name="alert-filled"
      unicode="&#xF101;"
      horiz-adv-x="626.3134277255242" d=" M238.6001490403013 96.9203440011278A77.09282793901431 77.09282793901431 0 1 1 390.1378824192866 77.0449739179472A81.55920323860548 81.55920323860548 0 0 1 387.6494733238001 96.9203440011278z M626.3134277255242 182.2600149040301A33.01927453626311 33.01927453626311 0 0 1 618.8641517794204 199.6469758917242C618.0346820809249 200.4764455902197 551.7568629030634 272.5605526575496 551.7568629030634 463.0993132061791C551.7568629030634 611.4467785140279 452.3321584660933 673.5293951783448 370.3263176975288 692.5912469033856V735.6598658637288A56.93033372943142 56.93033372943142 0 0 1 313.9861835612576 792C283.3596100783469 792 256.816579726491 766.3183420273509 256.816579726491 735.6598658637288V691.7617772048901C174.8107389579263 672.6201687780709 75.3860345209563 611.3989244929609 75.3860345209563 462.2698435076836C75.3860345209563 271.7310829590541 9.1082153430948 199.6469758917242 8.2787456445993 199.6469758917242A28.7124126402288 28.7124126402288 0 0 1 0 182.2600149040301H0V130.0193752391693H626.3134277255242V182.2600149040301z" />
    <glyph glyph-name="alert"
      unicode="&#xF102;"
      horiz-adv-x="864.864" d=" M242.6688 67.6368C264.528 45.7775999999999 294.7824 33.7392 325.0368 33.7392C355.7664000000001 33.7392 386.6544 45.9359999999999 408.9888000000001 68.4287999999999L241.8768 235.6992C197.3664 191.1887999999999 198.6336 111.6719999999999 242.6688 67.6368z M821.3040000000001 609.9984C821.3040000000001 609.9984 797.8608 744.1632 646.4304000000001 784.872C440.8272000000001 839.8368 264.528 513.6912 84.2688 605.2464L35.4816 556.4592L592.8911999999999 -0.9504000000001L641.52 47.8367999999999C550.1232 228.096 875.952 404.2368 821.3040000000001 609.9984zM556.1424000000001 133.848L170.28 519.7103999999999L188.496 522.72C266.112 535.7088 338.0256 584.9712 401.5440000000001 628.3728C478.368 681.12 557.8848 736.7184 628.5312 717.7103999999999C690.7824 701.2368 737.6688000000001 654.3504 754.1424000000001 592.0992C772.6752 522.4032 720.2448 446.0544000000001 664.8048000000001 365.112C594.6336 262.6272 570.3984 218.4336 556.1424000000001 133.848z" />
    <glyph glyph-name="arrow-down-double"
      unicode="&#xF103;"
      horiz-adv-x="864.864" d=" M849.3408000000001 462.8448L438.6096 82.5264L11.4048 475.3584C8.712 477.8928 4.5936 477.8928 1.7424 475.3584C0.3168 474.0912 -0.3168 472.1904 -0.3168 470.9232S0.3168 467.7551999999999 1.7424 466.4879999999999L433.6992 69.2207999999998C435.1248 67.9535999999998 436.392 67.3199999999998 438.4512000000001 67.3199999999998S442.5696000000001 67.9535999999998 443.2032000000001 69.2207999999998L858.8448000000001 453.9743999999999C861.5376000000002 456.5087999999999 861.5376000000002 460.3103999999999 858.8448000000001 462.8447999999999C856.3104000000001 465.3792 852.192 465.3792 849.3408000000001 462.8448z M862.488 711.6912C859.7952 714.2256 855.6768000000001 714.2256 852.8256 711.6912L442.0944000000001 331.3728L14.8896 724.2048C12.1968 726.7392 8.0784 726.7392 5.2272 724.2048C3.8016 722.9376 3.168 721.0368 3.168 719.7696C3.168 718.5024 3.8016 716.6016 5.2272 715.3344L437.1840000000001 318.0672C438.6096 316.8 439.8768 316.1664 441.9360000000001 316.1664C443.9952 316.1664 446.0544000000001 316.8 446.6880000000001 318.0672L862.488 702.8208C865.1808000000001 705.3552 865.1808000000001 709.1568 862.488 711.6912z" />
    <glyph glyph-name="arrow-down-traffic"
      unicode="&#xF104;"
      horiz-adv-x="864.864" d=" M169.9632 792L660.528 292.7232L678.1104 619.8192L832.8672000000001 465.0624L823.9968000000001 0H359.0928L204.336 155.5487999999999L531.432 164.2607999999999L31.9968 654.0336L169.9632 792z" />
    <glyph glyph-name="arrow-down"
      unicode="&#xF105;"
      horiz-adv-x="864.864" d=" M864.864 565.0128L762.3792000000001 660.8448L434.9664000000001 333.2736L99.4752 660.6864L0 558.2016L434.9664000000001 131.3136L864.864 565.0128z" />
    <glyph glyph-name="arrow-left-and-right"
      unicode="&#xF106;"
      horiz-adv-x="864.864" d=" M450.9648 100.1088L737.0352 396L450.9648 691.8912L514.6416 758.5776L864.864 396L514.6416 33.4224L450.9648 100.1088zM414.5328 691.8912L128.4624 396L414.5328 100.1088L350.2224 33.4223999999999L0 396L350.2224 758.5776L414.5328 691.8912z" />
    <glyph glyph-name="arrow-left"
      unicode="&#xF107;"
      horiz-adv-x="864.864" d=" M658.9440000000001 719.6112L346.4208 396L658.9440000000001 72.3888L588.9312 0L205.92 396L588.9312 792L658.9440000000001 719.6112z" />
    <glyph glyph-name="arrow-light-down"
      unicode="&#xF108;"
      horiz-adv-x="864.864" d=" M434.14272 166.1774400000001C428.3611200000001 166.1774400000001 422.5807872000001 166.1781052800001 416.799504 171.9596736L12.087504 570.8900736C0.5244624 582.4531152 -5.257296 605.5780896 6.3052704 617.1412895999999C17.868312 628.7044896 40.9964544 628.7044896 46.7780544 617.1412895999999L434.1452544 235.5556896000001L815.7150144 617.1412896C827.278056 628.7044896 844.6245984 628.7044896 856.1877984 617.1412896C867.7509984 605.578248 867.7509984 588.2348736 856.1877984 576.6716736000001L451.4916384 171.9596736C451.4916384 166.1780736000001 445.7081376 166.1774400000001 434.1452544 166.1774400000001z" />
    <glyph glyph-name="arrow-light-left"
      unicode="&#xF109;"
      horiz-adv-x="864.864" d=" M622.1952 0C629.64 0 634.5504000000001 2.5344 639.4608000000001 7.4448C649.2816 17.2656 649.2816 32.1552 639.4608000000001 42.1343999999999L279.4176000000001 402.1776L627.264 749.8656C637.0848 759.8448 637.0848 774.576 627.264 784.5552C617.2848 794.5344 602.5536 794.5344 592.5744000000001 784.5552L227.4624 421.9776C217.6416 412.1568000000001 217.6416 397.2672 227.4624 387.288L604.9295999999999 9.8208C609.2064 2.5344 616.6512 0 622.1952 0z" />
    <glyph glyph-name="arrow-light-right"
      unicode="&#xF10A;"
      horiz-adv-x="864.864" d=" M243.6192000000001 -0.1584C236.1744000000001 -0.1584 231.264 2.376 226.3536000000001 7.2864C216.3744 17.1071999999999 216.3744 31.9967999999999 226.3536000000001 41.9759999999999L585.9216 402.6527999999999L238.7088 749.7072000000001C228.7296 759.6864 228.7296 774.4176 238.7088 784.3968S263.4192 794.2176 273.3984 784.3968L640.8864000000001 421.8192C650.8656000000001 411.8399999999999 650.8656000000001 397.1088 640.8864000000001 387.1296L260.8848 7.2864C255.9744 3.0096 251.064 -0.1584 243.6192000000001 -0.1584z" />
    <glyph glyph-name="arrow-light-up"
      unicode="&#xF10B;"
      horiz-adv-x="864.864" d=" M434.14272 625.822584170256C428.3611200000001 625.822584170256 422.57952 625.822584170256 416.7979200000001 620.040984170256L12.08592 221.110584170256C0.521136 209.5473841702559 -5.260464 186.420984170256 6.301944 174.857784170256S40.991544 163.2945841702559 46.773144 174.857784170256L434.1403440000001 556.443384170256L815.710104 174.857784170256C827.2733039999999 163.2945841702559 844.6339439999999 163.2945841702559 856.1971439999999 174.857784170256S867.7603439999998 203.765784170256 856.1971439999999 215.328984170256L451.4851439999999 620.040984170256C451.4851439999999 625.822584170256 445.7035439999999 625.822584170256 434.1403439999999 625.822584170256z" />
    <glyph glyph-name="arrow-negative"
      unicode="&#xF10C;"
      horiz-adv-x="1081.08" d=" M0 792H1081.08L540.54 165.9438z" />
    <glyph glyph-name="arrow-positive"
      unicode="&#xF10D;"
      horiz-adv-x="1081.08" d=" M1079.4366 166.8942000000001H0L539.7084 792z" />
    <glyph glyph-name="arrow-right-rounded"
      unicode="&#xF10E;"
      horiz-adv-x="864.864" d=" M432.432 788.832C212.8896 788.832 36.432 612.3743999999999 36.432 392.832S212.8896 -3.168 432.432 -3.168S828.432 173.2896 828.432 392.832S651.9744000000001 788.832 432.432 788.832zM580.0608 392.832L338.8176000000001 151.5888L288.4464 201.9599999999999L479.16 392.832L284.8032 583.704L335.1744000000001 634.0752L580.0608 392.832L580.0608 392.832L580.0608 392.832z" />
    <glyph glyph-name="arrow-right-traffic"
      unicode="&#xF10F;"
      horiz-adv-x="864.864" d=" M0 475.6752L592.416 470.1312L407.088 676.5264H592.416L864.864 393.624L586.8720000000001 115.4735999999999H401.5440000000001L592.416 316.3248L0 310.7808V475.6752z" />
    <glyph glyph-name="arrow-right"
      unicode="&#xF110;"
      horiz-adv-x="864.864" d=" M206.0784 72.3888L518.76 396L206.0784 719.6112L276.0912 792L658.7856 396L276.0912 0L206.0784 72.3888z" />
    <glyph glyph-name="arrow-rounded"
      unicode="&#xF111;"
      horiz-adv-x="864.864" d=" M432.432 717.0768C608.8896 717.0768 753.5088000000001 572.4576 753.5088000000001 396S608.8896 74.9232 432.432 74.9232S111.3552 219.5424000000001 111.3552 396S255.9744 717.0768 432.432 717.0768M432.432 784.08C217.1664 784.08 44.352 611.2656 44.352 396S217.1664 7.92 432.432 7.92S820.5120000000001 180.7344000000001 820.5120000000001 396S647.6976 784.08 432.432 784.08L432.432 784.08zM668.7648 487.7136L619.344 540.6192L432.432 353.7072L245.52 540.6192L196.0992 487.7136L432.432 251.3807999999999L432.432 251.3807999999999L432.432 251.3807999999999L668.7648 487.7136z" />
    <glyph glyph-name="arrow-thin-left"
      unicode="&#xF112;"
      horiz-adv-x="864.864" d=" M636.1344 789.3072C633.6 791.8416 629.7984 791.8416 627.264 789.3072L229.5216 392.04C228.2544 390.7728 227.6208000000001 389.5056 227.6208000000001 387.6048C227.6208000000001 385.704 228.2544000000001 384.4368 229.5216 383.1696L614.2752 0.9503999999999C615.5424 -0.3168000000001 617.4432 -0.9504000000001 618.7104 -0.9504000000001C620.6112 -0.9504000000001 621.8784 -0.3168000000001 623.1456000000001 0.9503999999999C625.6800000000001 3.4848 625.6800000000001 7.2864 623.1456000000001 9.8208L242.6688 387.6048L635.5008 780.4368C638.6688 782.9712 638.6688 786.7728 636.1344 789.3072z" />
    <glyph glyph-name="arrow-thin-right"
      unicode="&#xF113;"
      horiz-adv-x="864.864" d=" M635.976 407.088L251.2224 789.3072C248.688 791.8416 244.8864 791.8416 242.352 789.3072C239.8176000000001 786.7728 239.8176000000001 782.9712 242.352 780.4368L622.6704000000001 402.6528L229.8384000000001 9.8208C227.3040000000001 7.2864 227.3040000000001 3.4848 229.8384000000001 0.9503999999999C231.1056000000001 -0.3168000000001 233.0064000000001 -0.9504000000001 234.2736000000001 -0.9504000000001S237.4416000000001 -0.3168000000001 238.7088000000001 0.9503999999999L635.9760000000001 398.2176C637.2432000000001 399.4848 637.8768000000001 400.752 637.8768000000001 402.6528S637.2432 406.4544 635.976 407.088z" />
    <glyph glyph-name="arrow-up-traffic"
      unicode="&#xF114;"
      horiz-adv-x="864.864" d=" M41.184 137.1744L535.0752 622.3536L211.464 639.6192L363.8448 792L823.6800000000001 783.288V324.0864000000001L670.6656 171.072L661.9536 494.5248L177.5664 0L41.184 137.1744z" />
    <glyph glyph-name="arrow-up"
      unicode="&#xF115;"
      horiz-adv-x="864.864" d=" M0 225.7200000000001L102.4848 131.1552L429.8976 458.568L765.3888000000001 131.1552L864.864 227.4624L429.8976 660.6864L0 225.7200000000001z" />
    <glyph glyph-name="audience-bank"
      unicode="&#xF116;"
      horiz-adv-x="864.864" d=" M834.768 45.41328L834.768 45.6667200000001V65.2766399999999A19.78416 19.78416 0 0 1 814.8729600000001 84.85488H794.9304000000001V104.6865599999999A19.768320000000003 19.768320000000003 0 0 1 775.0512000000001 124.28064H757.3104000000001V146.45664A21.03552 21.03552 0 0 1 736.3224 167.4287999999999H728.0064000000001V393.03792H744.48L754.96608 427.26816H832.8196800000001A36.52704 36.52704 0 0 1 867.81024 452.89728A35.76672 35.76672 0 0 1 852.984 493.30512L460.50048 749.51712A36.828 36.828 0 0 1 420.1718400000001 749.51712L27.46656 493.30512A35.7192 35.7192 0 0 1 12.672 452.89728A36.432 36.432 0 0 1 47.64672 427.26816H125.48448L135.9864 393.03792H156.024V167.3495999999999H144.03312A21.03552 21.03552 0 0 1 123.06096 146.3774399999999V124.2014399999999H106.33392A19.8 19.8 0 0 1 86.47056 104.6073599999999V85.0449599999998L86.47056 84.7756799999999H66.528A19.78416 19.78416 0 0 1 46.6488 65.1974399999998V45.3340799999997M268.4088 167.3020799999998H259.95024V393.03792H276.3288L286.81488 427.26816H359.4254400000001L369.92736 393.03792H389.99664V167.3495999999999H377.95824A21.05136 21.05136 0 0 1 356.97024 146.3774399999999V124.2014399999999H289.41264V146.3774399999999A21.03552 21.03552 0 0 1 268.4404800000001 167.3495999999999M440.3520000000001 676.3679999999999L711.3902400000001 499.3243199999999H169.04448zM502.42896 167.41296H494.0496V393.03792H510.3648L520.85088 427.26816H593.4931200000001L603.9792 393.03792H624.096V167.3495999999999H611.9784000000001A21.03552 21.03552 0 0 1 591.00624 146.3774399999999V124.2014399999999H523.36944V146.3774399999999A21.05136 21.05136 0 0 1 502.3814400000001 167.3495999999999M46.47456 47.18736A19.768320000000003 19.768320000000003 0 0 1 66.38544 27.62496L814.7304 26.928A19.752480000000002 19.752480000000002 0 0 1 834.5779200000001 46.5062399999999 M440.8272000000001 626.20272L310.6382400000001 541.26864L570.9528 541.26864L440.8272000000001 626.20272z" />
    <glyph glyph-name="audience-builds"
      unicode="&#xF117;"
      horiz-adv-x="864.864" d=" M671.90112 364.8744000000001H608.14512V428.6304H671.90112zM671.90112 241.92432H608.14512V305.712H671.90112zM572.41008 60.36624H482.8032000000001V173.9073600000001H572.41008zM447.084 364.8744000000001H383.3280000000001V428.6304H447.0998400000001zM447.084 241.92432H383.3280000000001V305.712H447.0998400000001zM374.4576 519.72624H311.30352V60.36624H141.81552V704.88H374.4576zM495.792 305.712H559.56384V241.956H495.792zM495.792 428.64624H559.56384V364.89024H495.792zM838.12608 60.36624H743.90976V519.72624H439.78176V787.248H76.60224V60.36624H26.7696C14.8896 60.36624 5.16384 52.77888 5.16384 43.52832V1.5839999999999H859.73184V43.52832C859.73184 52.77888 850.00608 60.36624 838.12608 60.36624" />
    <glyph glyph-name="audience-case"
      unicode="&#xF118;"
      horiz-adv-x="864.864" d=" M568.1808 786.89952H294.7665600000001C255.38832 786.89952 223.344 729.6696 223.344 659.34V641.0131200000001H267.12576S256.18032 744.48 299.97792 744.48H562.92192C606.0384 744.48 596.09088 644.22864 595.77408 641.21904V641.06064H639.5400000000001V659.34C639.5400000000001 729.6696 607.49568 786.89952 568.11744 786.89952 M861.2208000000002 321.45696H861.2208000000002C856.7380800000001 310.36896 837.1756800000002 302.00544 813.7008000000001 302.00544H660.6072V224.2627200000001C660.6072 215.23392 658.2312000000001 207.8683200000001 655.26912 207.8683200000001H571.5388800000001C568.54512 207.8683200000001 566.18496 215.23392 566.18496 224.2627200000001V302.00544H299.83536V224.2627200000001C299.83536 215.23392 297.4752 207.8683200000001 294.5448 207.8683200000001H210.7512C207.8208 207.8683200000001 205.41312 215.23392 205.41312 224.2627200000001V302.00544H49.35744C28.76544 302.00544 11.18304 308.43648 4.13424 317.5128000000001L4.13424 317.5128000000001A20.592 20.592 0 0 0 0 326.1456V80.27712A74.00447999999999 74.00447999999999 0 0 1 73.90944 6.336H789.03792A74.00447999999999 74.00447999999999 0 0 1 862.94736 80.27712V326.304A44.03519999999999 44.03519999999999 0 0 0 861.2207999999999 321.45696 M862.2187200000001 567.68976V616.69872C862.2187200000001 630.14688 840.4545600000001 641.01312 813.58992 641.01312H49.35744C22.52448 641.0131200000001 0.76032 630.14688 0.76032 616.69872V567.68976A71.28 71.28 0 0 1 0 557.74224V385.308C0.17424 379.7164800000001 0.85536 372.03408 3.168 368.4225599999999C9.504 358.6968 27.7992 351.648 49.35744 351.648H813.58992C840.51792 351.648 862.2187200000001 362.4984 862.2187200000001 375.9465599999999V373.96656L862.9473600000001 383.7873599999999V557.74224A76.38048 76.38048 0 0 1 862.2187200000001 567.68976" />
    <glyph glyph-name="audience-factory"
      unicode="&#xF119;"
      horiz-adv-x="864.864" d=" M751.02192 666.49968L645.14736 666.49968L643.70592 626.25024L752.4633600000001 626.25024L751.02192 666.49968z M621.45072 102.8015999999999H530.38656V155.9448H621.45072zM434.63376 102.8015999999999H343.5696000000001V155.9448H434.63376zM247.8168 102.8015999999999H156.816V155.9448H247.86432zM753.6513600000001 593.01792H642.53376L632.9188800000001 323.48448L358.8235200000001 434.016V386.79696L631.27152 276.91488L629.68752 230.34528L77.04576 453.1824V405.94752L358.82352 292.29552V245.07648L77.04576 358.6968V1.5839999999999H774.71856z M79.6752 755.34624C105.43104 748.05984 130.8384 742.16736 156.35664 739.11024A370.81440000000003 370.81440000000003 0 0 1 232.38864 737.65296A524.00304 524.00304 0 0 1 307.91376 750.32496C333.17856 756.18576 358.60176 763.44048 384.84864 770.04576C397.94832 773.40384 411.23808 776.6351999999999 424.79712 779.39136S452.1052799999999 784.60272 466.07616 786.26592A321.552 321.552 0 0 0 551.2478399999999 785.88576A286.2288 286.2288 0 0 0 632.4119999999999 761.2704A309.52944 309.52944 0 0 0 668.93904 740.88432A326.50992 326.50992 0 0 0 702.20304 716.37984A6.76368 6.76368 0 0 0 703.0584 706.87584A6.55776 6.55776 0 0 0 695.1383999999999 705.07008H695.1383999999999C683.0208 710.72496 670.9824 716.15808 658.81728 721.0368S634.51872 730.224 622.1793600000001 733.8672A314.5190400000001 314.5190400000001 0 0 1 547.5096000000001 746.84016A344.58335999999997 344.58335999999997 0 0 1 472.41216 741.708C459.86688 739.55376 447.3216000000001 736.84512 434.6812800000001 733.89888S409.33728 727.56288 396.5068800000001 724.2048C370.8619200000001 717.34608 344.5992000000001 710.31312 317.4336000000001 705.02256A408.67199999999997 408.67199999999997 0 0 0 233.7984000000001 696.6432A304.47648000000004 304.47648000000004 0 0 0 150.1473600000001 708.9192A300.34224 300.34224 0 0 0 110.88 723.50784C104.544 726.43824 98.33472 729.47952 92.22048 732.71088S80.02368 739.4904 74.41632 743.16528L74.2896 743.16528A6.74784 6.74784 0 0 0 72.3096 752.43168A6.62112 6.62112 0 0 0 79.6752 755.26704" />
    <glyph glyph-name="audience-house"
      unicode="&#xF11A;"
      horiz-adv-x="864.864" d=" M711.5328000000001 63.8352C711.8496 54.3312 704.2464 46.5696 695.0592 45.9359999999999H173.448C163.6272 45.9359999999999 155.8656 54.0144 155.5488 63.8352V104.0687999999999C155.5488 163.6272 155.5488 222.8688 155.8656 282.2688C155.8656 341.5104 156.1824 442.5695999999999 156.1824 442.5695999999999V473.2992C156.1824 480.2687999999999 162.0432 491.5151999999999 169.3296 498.1679999999999L419.2848 724.3632C426.8880000000001 731.016 437.976 731.016 445.5792 724.3632L697.5936 497.0592C705.3552 489.2976 710.1071999999999 478.5264 710.7408 467.4384V460.4688C710.7408 401.2272 710.7408 341.8272 711.0576 282.5856000000001C711.3743999999999 223.3440000000001 711.3743999999999 163.7856000000001 711.3743999999999 104.3856000000001L711.5328000000001 63.8352zM815.2848000000001 453.816L796.5936 470.6064L687.7728000000001 568.1808C680.0112000000001 575.9424 675.2592000000002 586.7135999999999 674.6256000000001 597.8016V723.2544C674.6256000000001 732.4416 667.3392 740.0448 658.1520000000002 740.0448L658.1520000000002 740.0448H527.3136000000002C522.5616000000001 739.728 518.6016000000002 735.2927999999999 519.2352000000001 730.5408C519.2352000000001 725.1552 515.2752000000002 724.3632 510.8400000000001 728.3232C507.9888000000001 730.8576 505.2960000000001 733.392 502.4448000000001 735.6096L468.3888000000001 766.3392L443.8368 788.04C437.3424 793.584 427.8384 793.584 421.8192 788.04L396.9504000000001 766.0224L68.5872 469.8144L49.896 453.024C46.5696 449.6976 44.5104 445.4208 44.352 440.6688V399.3264C44.352 390.1392 51.9552 382.8528 60.8256 382.8528H92.1888C100.584 382.8528 107.2368 375.0912 107.2368 364.9536V16.4735999999999C107.2368 7.2864 114.84 0 123.7104 0H740.0448000000001C749.2320000000001 0 756.5184 7.6032 756.5184 16.4735999999999V364.9536C756.5184 374.7743999999999 763.1712 382.8528 771.5664 382.8528H803.2464000000001C812.4336 382.8528 819.72 390.456 819.72 399.3264V441.3024C820.3536 446.0544 818.2944000000001 450.4896 815.2848000000001 453.816 M345.4704 414.6912H410.8896C413.7408 414.6912 416.2752 412.4736 416.2752 409.3056V343.8864000000001C416.2752 341.0352 414.0576 338.5008000000001 410.8896 338.5008000000001H345.4704C342.6191999999999 338.5008000000001 340.0848 340.7184000000001 340.0848 343.8864000000001V409.3056000000001C340.0848 412.1568 342.3024000000001 414.6912 345.4704 414.6912z M454.2912000000001 414.6912H519.7104C522.5616000000001 414.6912 525.096 412.4736 525.096 409.3056V343.8864000000001C525.096 341.0352 522.8784 338.5008000000001 519.7104 338.5008000000001H454.2912000000001C451.44 338.5008000000001 448.9056000000001 340.7184000000001 448.9056000000001 343.8864000000001V409.3056000000001C448.9056 412.1568 451.44 414.6912 454.2912000000001 414.6912z M345.4704 291.1392H410.8896C413.7408 291.1392 416.2752 288.9216 416.2752 285.7536V220.3344C416.2752 217.4832 414.0576 214.9488 410.8896 214.9488H345.4704C342.6191999999999 214.9488 340.0848 217.1664 340.0848 220.3344V285.7536C340.0848 288.6048 342.3024000000001 291.1392 345.4704 291.1392z M454.2912000000001 291.1392H519.7104C522.5616000000001 291.1392 525.096 288.9216 525.096 285.7536V220.3344C525.096 217.4832 522.8784 214.9488 519.7104 214.9488H454.2912000000001C451.44 214.9488 448.9056000000001 217.1664 448.9056000000001 220.3344V285.7536C448.9056 288.6048 451.44 291.1392 454.2912000000001 291.1392z" />
    <glyph glyph-name="bookmark"
      unicode="&#xF11B;"
      horiz-adv-x="864.864" d=" M744.9552000000001 239.976C740.9952000000001 263.8944 721.0368 284.0112 693 300.0095999999999L573.0912000000001 360.0431999999999C565.1712 364.0032 557.0928 364.0032 553.1328 356.0831999999999C529.2144 332.1647999999999 489.1392 308.0879999999999 433.2240000000001 308.0879999999999S337.2336 336.1247999999999 313.3152 356.0831999999999C309.3552 360.0431999999999 301.2768000000001 364.0032 293.3568 360.0431999999999L173.448 300.0095999999999C145.4112 284.0111999999999 125.4528000000001 264.0528 121.4928 239.976C113.5728 179.9424 117.5328 4.1184 117.5328 4.1184L749.2320000000001 0.1584C748.9152 0 753.0336 179.9424 744.9552000000001 239.976zM433.0656 439.8768C513.0576 439.8768 577.0512 511.7904 577.0512 595.7424V635.8176C577.0512 723.7296 513.0576 791.6832 433.0656 791.6832S289.08 719.7696 289.08 635.8176V595.9008C293.1984 511.7904 357.192 439.8768 433.0656 439.8768z" />
    <glyph glyph-name="calendar-corner"
      unicode="&#xF11C;"
      horiz-adv-x="766.2479513184585" d=" M448.4197971602435 311.225476673428H317.7478296146045V439.9053955375254H448.355537525355zM264.8139553752536 135.5235699797161H134.2223123732252V264.2034888438134H264.8139553752536zM448.4197971602435 135.5235699797161H317.7478296146045V264.2034888438134H448.355537525355zM632.0095740365113 311.225476673428H501.4179310344828V439.9053955375254H632.0095740365113zM264.8139553752536 311.225476673428H134.2223123732252V439.9053955375254H264.8139553752536zM161.6129817444219 745.1547261663286A46.845273833671406 46.845273833671406 0 0 0 255.3035294117647 745.1547261663286V647.6728600405679A46.845273833671406 46.845273833671406 0 0 0 161.6129817444219 647.6728600405679zM511.8279918864098 745.1547261663286A46.845273833671406 46.845273833671406 0 0 0 605.5185395537526 745.1547261663286V647.6728600405679A46.845273833671406 46.845273833671406 0 0 0 511.8279918864098 647.6728600405679zM706.2133874239352 251.962028397566V506.0446247464503A9.526490872210953 9.526490872210953 0 0 1 696.8314807302232 515.4104665314402H69.4004056795132A9.638945233265723 9.638945233265723 0 0 1 60.0345638945233 506.0446247464503V69.4004056795131A9.510425963488846 9.510425963488846 0 0 1 69.4004056795132 60.0345638945233H538.3350912778905C555.4924137931034 60.0345638945233 562.8180121703854 69.0309127789046 564.0389452332657 85.7384178498985V183.7343610547667C564.4084381338743 212.0086004056796 578.8829208924949 225.9368762677484 606.5627586206896 226.2581744421907H680.6219878296146C698.855659229209 226.6597971602435 705.908154158215 236.4433265720081 706.3258417849898 251.962028397566M16.3862068965517 715.6916835699797H135.8448681541582V647.6728600405679A72.61338742393511 72.61338742393511 0 1 1 281.0716430020285 647.6728600405679V715.6916835699797H486.043813387424V647.6728600405679A72.61338742393511 72.61338742393511 0 0 1 631.2705882352942 647.6728600405679V715.6916835699797H749.893874239351A16.41833671399595 16.41833671399595 0 0 0 766.2800811359027 699.305476673428V227.1578093306288C766.2800811359027 215.912373225152 764.12738336714 206.8999594320486 755.6611764705883 198.7550507099391L596.9720081135903 16.2737525354969C587.6382961460447 5.4781338742393 572.0713995943206 0 558.062799188641 0H16.3862068965517A16.41833671399595 16.41833671399595 0 0 0 0 16.3862068965517V699.305476673428A16.41833671399595 16.41833671399595 0 0 0 16.3862068965517 715.6916835699797" />
    <glyph glyph-name="calendar-small"
      unicode="&#xF11D;"
      horiz-adv-x="864.864" d=" M232.056 792H307.6128V653.4H232.056V792zM558.2016 792H633.7583999999999V653.4H558.2016V792zM179.4672 702.3456V594H361.944V702.3456H503.712V594H686.1888V702.3456H795.168V0H71.28V702.3456H179.4672zM722.7792000000001 470.2896H143.6688V72.3888000000001H722.7792000000001V470.2896zM216.0576 235.0655999999999H650.3904000000001V180.576H216.0576V235.0655999999999zM216.0576 361.944H650.3904000000001V307.4544H216.0576V361.944z" />
    <glyph glyph-name="calendar"
      unicode="&#xF11E;"
      horiz-adv-x="864.864" d=" M213.3648 792H304.92V655.9344H213.3648V792zM564.8544 792H656.4096000000001V655.9344H564.8544V792zM257.8752 351.4896H302.5440000000001V306.9791999999999H258.0336000000001L257.8752 351.4896L257.8752 351.4896zM564.8544 351.4896H609.3648000000001V306.9791999999999H564.8544V351.4896zM564.8544 220.3344H609.3648000000001V175.824H564.8544V220.3344zM257.8752 220.3344H302.5440000000001V175.824H258.0336000000001L257.8752 220.3344L257.8752 220.3344zM389.1888 220.3344H478.368V175.824H389.1888V220.3344zM389.1888 351.4896H478.368V306.9791999999999H389.1888C389.1888 306.8208 389.1888 351.4896 389.1888 351.4896zM168.8544 702.8208V613.6416H349.5888V702.8208H525.2544V613.6416H698.544V702.8208H787.7232V0H77.2992V707.8896H168.8544V702.8208zM696.0096 440.5104H168.8544V91.5551999999999H696.0096V440.5104z" />
    <glyph glyph-name="callback"
      unicode="&#xF11F;"
      horiz-adv-x="864.864" d=" M828.2736 608.0976C801.9792000000001 798.336 682.0704000000001 797.3856 648.8064 789.4656C646.5888000000001 788.9904 644.8464 787.8816 643.7376 786.456C637.2432 781.5456 614.2752 740.2032 589.2480000000002 695.0592C566.5968000000001 654.192 539.1936000000001 608.5727999999999 540.9360000000001 599.8607999999999C542.6784000000001 570.5568 639.3024000000001 520.9775999999999 641.5200000000001 488.664C642.4704000000002 474.7248 592.8912000000001 377.9424 521.7696000000002 306.6624C455.2416000000002 240.1344000000001 353.8656000000002 185.8032 339.7680000000002 186.9119999999999C307.4544000000002 189.1296 257.8752000000001 285.912 228.5712000000001 287.496C219.8592000000001 289.2384 174.2400000000001 261.8352 133.3728000000001 239.184C88.2288000000001 214.1568 46.8864000000001 191.1887999999999 41.9760000000001 184.6944C40.5504000000001 183.4272 39.6000000000001 181.8432 38.9664000000001 179.6256000000001C31.2048000000001 146.5200000000001 30.2544000000001 26.4528 220.3344000000001 0.1584C231.2640000000002 -1.4256 418.9680000000002 17.1072 602.3952000000002 189.1296C609.0480000000001 195.3072 633.9168000000001 220.3344 639.3024000000001 226.0368000000001C811.3248000000001 409.464 829.8576 597.168 828.2736 608.0976z M309.0384 541.728L472.9824 660.3696L309.0384 779.0112L309.0384 698.544L96.624 698.544L96.624 622.3536L309.0384 622.3536z" />
    <glyph glyph-name="camera"
      unicode="&#xF120;"
      horiz-adv-x="864.864" d=" M535.1860800000001 609.98256A128.81088 128.81088 0 1 1 663.9969600000001 481.18752A128.9376 128.9376 0 0 1 535.1860800000001 609.98256 M788.56272 743.7672H252.55296V775.63728A16.410239999999998 16.410239999999998 0 0 1 236.23776 792H112.05216A16.410239999999998 16.410239999999998 0 0 1 95.68944 775.63728V743.7672H65.45088A65.62512 65.62512 0 0 1 0 678.33216V284.04288A65.62512 65.62512 0 0 1 65.45088 218.592H788.56272A65.62512 65.62512 0 0 1 853.99776 284.04288V678.33216A65.62512 65.62512 0 0 1 788.56272 743.7672M249.76512 578.0808H98.42976V671.10912H249.7176000000001zM535.1860800000001 290.67984A190.50768000000002 190.50768000000002 0 1 0 725.69376 481.1875199999999A190.50768000000002 190.50768000000002 0 0 0 535.1860800000001 290.67984" />
    <glyph glyph-name="cash"
      unicode="&#xF121;"
      horiz-adv-x="864.864" d=" M478.6848 383.9615999999999C485.9712000000001 383.9615999999999 493.2576 384.7536 500.3856 386.496C521.928 391.8816 539.0351999999999 405.0288 548.2224 423.5616C557.7264 442.728 557.8848 465.5376 548.2224 487.5552C529.2144 531.7488000000001 477.8928 560.2608 431.3232 552.4992C407.5632 548.5391999999999 388.5552 535.7088 378.1008 516.5424C367.488 497.0592 367.0128 472.9824 376.6752 450.1728C393.624 410.8896 437.0256 383.9615999999999 478.6848 383.9615999999999zM410.2560000000001 498.96C415.3248 508.1472 424.8288 514.3248 437.3424000000001 516.384C440.3520000000001 516.8592 443.5200000000001 517.1759999999999 446.6880000000001 517.1759999999999C474.0912 517.1759999999999 503.5536 498.6432 514.4832 473.1408C519.7104 461.1024 519.8688 449.3808 515.2752 439.8768C510.9984000000001 431.1648 502.6032 424.9872 491.5152 422.2944C461.2608 414.8496 423.4032000000001 434.6496 410.4144000000001 464.7456C405.0288 477.1008 405.0288 489.2976 410.2560000000001 498.96z M864.864 392.6736C844.5888000000001 437.0256 726.4224 694.9008 726.4224 694.9008C499.2768000000001 547.7472 248.2128000000001 706.6224 66.3696000000001 531.1152C77.6160000000001 506.4048 204.8112000000001 228.8879999999999 204.8112000000001 228.8879999999999C399.6432000000001 394.0992 665.1216 237.6 864.864 392.6736zM394.7328 586.872C493.0992000000001 587.1888 603.3456 587.664 709.9488 642.7872L818.7696 405.1872C735.6096 352.9152 639.4608000000001 352.1232 538.4016 351.3312C430.5312 350.5392 319.3344 349.5888 219.5424 285.2784000000001L111.1968 521.6112C191.5056 586.0799999999999 286.2288 586.3968 394.7328 586.872z M552.9744000000001 258.3504000000001C444.312 258.6672 332.3232000000001 259.6176000000001 182.9520000000001 153.9648000000001L33.5808000000001 489.7728000000001L0 474.8832L167.904 97.2575999999999L186.4368 111.1967999999999C335.3328 223.0271999999999 440.5104000000001 222.2351999999999 552.816 221.76C641.8368 221.4432000000001 734.0256 220.6512 849.3408000000001 277.2L833.1840000000001 309.9888C725.6304000000001 257.2416 641.8368 257.8752 552.9744000000001 258.3504000000001z" />
    <glyph glyph-name="checked"
      unicode="&#xF122;"
      horiz-adv-x="864.864" d=" M795.3264 761.7456L866.1312000000001 671.2991999999999L378.7344000000002 234.1152L166.1616000000002 451.1232L253.4400000000002 529.3728000000001L382.5360000000002 400.9104000000001L795.3264 761.7456zM751.2912 429.4224V30.2544H1.2672V761.7456H750.1824L654.6672000000001 668.7647999999999H94.248V123.2352H652.1328V347.688L751.2912 429.4224z" />
    <glyph glyph-name="circle"
      unicode="&#xF123;"
      horiz-adv-x="864.864" d=" M433.5408 792.4752C651.9744000000001 792.4752 829.5408000000001 614.9087999999999 829.5408000000001 396.4752S651.9744000000001 0.4752 433.5408000000001 0.4752S37.5408000000001 178.0415999999999 37.5408000000001 396.4752S215.1072 792.4752 433.5408 792.4752z" />
    <glyph glyph-name="clean-energy"
      unicode="&#xF124;"
      horiz-adv-x="792.0000000000001" d=" M0 396.0252084792157C0 177.3343698048586 177.2839528464273 0.0504169584314 395.9747915207843 0.0504169584314C614.6656301951414 0.0504169584314 791.9495830415686 177.3343698048586 791.9495830415686 396.0252084792157C791.9495830415686 614.7160471535727 614.6656301951414 792 395.9747915207843 792C177.2839528464273 792 0 614.7160471535727 0 396.0252084792157z M630.8674008530143 473.3144057546629C624.6156980075117 508.8583614488509 611.2047870647399 545.9652428544147 617.0531542427908 582.5679546756636C517.8325800496532 549.7465147367751 465.8022789483736 483.3977974409574 447.6521739130435 442.9633967789165A178.07269717996056 178.07269717996056 0 0 1 443.6692341969572 307.3921955566872A172.07307912661534 172.07307912661534 0 0 0 445.5346616589217 287.2254121840982A135.41995034693488 135.41995034693488 0 0 0 441.8542236934242 249.5135272773569A85.7088293335031 85.7088293335031 0 0 0 426.7291361639825 217.4987586733719A60.500350117766885 60.500350117766885 0 0 0 400.4619008211854 197.7857279266663A56.66866127697499 56.66866127697499 0 0 0 392.7481061811701 195.3657139219555C389.8239225921447 194.7102934623464 386.7989050862563 194.1052899611688 383.8243045387995 193.7019542937169A89.59093513272644 89.59093513272644 0 0 0 366.2792030046471 192.9456999172449A65.84454771150297 65.84454771150297 0 0 0 334.9198548602713 202.5249220192246A58.181170029919166 58.181170029919166 0 0 0 313.8455662359158 225.7671398561334A63.87828633267555 63.87828633267555 0 0 0 308.5013686421797 240.8922273855751C308.1988668915909 242.4551530969508 307.9467820994335 243.967661849895 307.6946973072762 245.5305875612705H321.0551912916163A15.125087529441721 15.125087529441721 0 0 1 336.1802788210581 260.6556750907123V273.3607486154433H362.4979311222866A32.11560252084792 32.11560252084792 0 0 1 393.9581131835254 302.6530014641288L401.4702399898148 406.0077662486472A24.300973963969703 24.300973963969703 0 0 1 419.9732637341652 429.5524858361449V433.081672926348A24.351390922401173 24.351390922401173 0 0 1 395.6722897701954 457.3322299318862H182.6606403972245A24.300973963969703 24.300973963969703 0 0 1 158.4100833916863 433.081672926348V429.5524858361449A24.300973963969703 24.300973963969703 0 0 1 176.9131071360367 406.0077662486472L184.3748169838946 302.6530014641288A32.11560252084792 32.11560252084792 0 0 1 215.8349990451334 273.3607486154433H236.9597046279203V260.6556750907123A15.125087529441721 15.125087529441721 0 0 1 252.0847921573621 245.5305875612705H267.2098796868038C267.2098796868038 245.1272518938188 267.2098796868038 244.6734992679356 267.2098796868038 244.2197466420523A109.70730154688395 109.70730154688395 0 0 1 269.7307276083774 231.4642561588898A102.95142911706667 102.95142911706667 0 0 1 279.1082818766312 207.1632821949201A97.20389585587881 97.20389585587881 0 0 1 315.7109936978802 169.9555668724935A103.20351390922401 103.20351390922401 0 0 1 365.0187790438603 156.7463237634477A124.0761346998536 124.0761346998536 0 0 1 389.6222547584188 158.813419059138C393.6051944745052 159.5192564771786 397.4873002737285 160.4267617289451 401.4198230313833 161.485517856006A82.5829779107518 82.5829779107518 0 0 1 413.7215608886626 165.8213762811126A94.58221401744224 94.58221401744224 0 0 1 453.1980393405055 197.7857279266663A117.52193010376219 117.52193010376219 0 0 1 472.4573174613279 242.4551530969508A162.64510789993 162.64510789993 0 0 1 475.2806671334903 288.8891718123369C474.6756636323126 297.7121395378446 471.2473104589726 320.5006047488701 471.0960595836781 322.3156152524031A227.38048252594058 227.38048252594058 0 0 0 541.6798013877395 509.8667006174804C463.3318479852314 398.9493920682412 504.7745878159018 279.3099497103571 504.7745878159018 279.3099497103571C540.3689604685213 290.8050162327329 586.7021452670444 320.4501877904386 607.1714303902222 350.2466102234387C630.413648227131 383.9755554140938 638.3291107008722 430.9137437137946 630.8674008530143 473.4152396715259M240.1863899675346 391.7397670125406H338.096123241454A10.637978229040675 10.637978229040675 0 0 0 338.096123241454 370.5142275128908H240.1863899675346A10.637978229040675 10.637978229040675 0 0 0 240.1863899675346 391.7397670125406M240.1863899675346 321.8114456680883A10.637978229040675 10.637978229040675 0 0 0 240.1863899675346 343.0369851677382H338.096123241454A10.637978229040675 10.637978229040675 0 0 0 338.096123241454 321.8114456680883z M240.7409765102808 558.5190655038513A20.72136991533516 20.72136991533516 0 0 1 199.3486536380419 558.5190655038513V472.8102361703482H240.7409765102808z M378.9338595709466 558.5190655038513A20.72136991533516 20.72136991533516 0 0 1 337.5415366987077 558.5190655038513V472.8102361703482H378.9338595709466z" />
    <glyph glyph-name="clock-2"
      unicode="&#xF125;"
      horiz-adv-x="864.864" d=" M433.2240000000001 792C217.1664 792 38.016 612.8496 38.016 396.792S217.1664 1.5839999999999 433.2240000000001 1.5839999999999S828.432 180.7344000000001 828.432 396.792S649.2816 792 433.2240000000001 792zM617.6016 291.456H359.4096V660.2112H464.7456V396.792H617.6016V291.456z" />
    <glyph glyph-name="clock"
      unicode="&#xF126;"
      horiz-adv-x="864.864" d=" M450.8064000000001 706.7808V755.2512H521.1360000000001V792H343.728V755.2512H414.0576V706.7808C227.4624 697.2768 78.5664 542.8368 78.5664 353.8655999999999C78.5664 158.7167999999999 237.2832 0 432.432 0C627.5808000000001 0 786.2976 158.7167999999999 786.2976 353.8655999999999C786.2976 542.8368 637.4016 697.2768 450.8064000000001 706.7808zM432.432 36.7488C257.5584 36.7488 115.3152 178.992 115.3152 354.024C115.3152 528.8976 257.5584000000001 671.1408 432.432 671.1408C607.3056 671.1408 749.7072000000001 528.8976 749.7072000000001 354.024C749.7072000000001 178.992 607.3056 36.7488 432.432 36.7488z M584.1792 531.5904L454.9248000000001 402.336C448.1136000000001 405.504 440.5104000000001 407.4048 432.5904000000001 407.4048C403.1280000000001 407.4048 379.2096000000001 383.4864 379.2096000000001 354.024C379.2096000000001 324.5616 403.1280000000001 300.6432 432.5904000000001 300.6432S485.9712000000001 324.5616000000001 485.9712000000001 354.024C485.9712000000001 362.1024 484.0704000000001 369.5472 480.9024000000001 376.3584L610.1568000000001 505.6128L584.1792 531.5904z M660.9690648000001 668.5885324799999H685.49153904V582.7598726399999H660.9690648000001V668.5885324799999z" />
    <glyph glyph-name="close"
      unicode="&#xF127;"
      horiz-adv-x="866.4480000000001" d=" M836.3520000000001 63.0432L503.3952 396L827.3231999999999 719.928L764.2800000000001 782.9712L440.3520000000001 459.0432L107.3952 792L44.352 728.9568L377.3088 396L53.3808 72.072L116.424 9.0287999999999L440.3520000000001 332.9568L773.3088 0L836.3520000000001 63.0432z" />
    <glyph glyph-name="comment"
      unicode="&#xF128;"
      horiz-adv-x="864.864" d=" M856.9440000000001 772.2L7.92 772.2L7.92 262.7856L469.4976 262.7856L687.1392000000001 39.9168L687.1392000000001 262.7856L856.9440000000001 262.7856z" />
    <glyph glyph-name="compare-left"
      unicode="&#xF129;"
      horiz-adv-x="864.864" d=" M864.864 431.9568H101.376L320.2848 650.8656L282.9024 688.248L0 405.3456L282.9024 127.6704L320.2848 165.0528000000001L101.376 378.576H864.864V431.9568z" />
    <glyph glyph-name="compare-right"
      unicode="&#xF12A;"
      horiz-adv-x="864.864" d=" M549.8064 638.1936000000001L763.488 419.2848H0L0 365.904H763.488L544.4208 152.3807999999999L587.1888 114.9984L864.864 392.6736L587.1888 675.576L549.8064 638.1936000000001z" />
    <glyph glyph-name="compare"
      unicode="&#xF12B;"
      horiz-adv-x="864.864" d=" M380.952 407.2464L380.952 408.5136L379.6848 408.5136L265.1616 523.512L248.0544 506.4048L345.6288 408.5136L0 408.5136L0 384.2784000000001L345.9456 384.2784000000001L247.7376 285.5952L265.0032000000001 268.6464L380.1600000000001 384.2784000000001L380.952 384.2784000000001L380.952 385.2288L392.04 396.1584z M864.864 407.7216L518.9184 407.7216L617.1264000000001 506.4048L599.8608 523.512L484.704 407.7216L483.912 407.7216L483.912 406.7712L472.824 395.8416L483.912 384.7536L483.912 383.4864L485.1792 383.4864L599.7024 268.488L616.8096 285.5952L519.2352000000001 383.4864L864.864 383.4864z" />
    <glyph glyph-name="contract"
      unicode="&#xF12C;"
      horiz-adv-x="864.864" d=" M36.432 479.7936H828.432V314.5824H36.432V479.7936z" />
    <glyph glyph-name="contrast"
      unicode="&#xF12D;"
      horiz-adv-x="864.864" d=" M432.432 792.00000026136C214.63198416 792.00000026136 36.432004752 613.8 36.432004752 395.99998416C36.432004752 178.19998416 214.63198416 0 432.432 0C650.2320000000001 0 828.432 178.19998416 828.432 395.99998416C828.432 613.8 650.2320000000001 792.00000026136 432.432 792.00000026136zM432.432 735.4276950240001C619.11770976 735.4276950240001 771.8596776 582.68570976 771.8596776 395.99998416C771.8596776 209.31429024 619.1177097599999 56.5723224 432.432 56.5723224C245.7462744000001 56.5723224 93.004312896 209.31429024 93.004312896 395.99998416C93.004312896 582.68570976 245.7462744000001 735.4276950240001 432.432 735.4276950240001zM432.432 690.1723239840001L432.432 101.82769344C596.48912928 101.82769344 726.60430656 234.77143536 726.60430656 395.99998416C726.60430656 557.22858048 596.48912928 690.172323984 432.432 690.172323984z" />
    <glyph glyph-name="delete"
      unicode="&#xF12E;"
      horiz-adv-x="633.6" d=" M593.9519028340081 712.8H451.9690688259109L419.6317408906883 777.3463967611336A26.389311740890694 26.389311740890694 0 0 1 396 792H237.6A26.389311740890694 26.389311740890694 0 0 1 213.9842914979757 777.3463967611336L181.6309311740891 712.8H39.6A39.6 39.6 0 0 1 0 673.2V607.1946558704453A39.6 39.6 0 0 1 39.6 567.5946558704453H52.8106882591093V52.7946558704452A52.79465587044535 52.79465587044535 0 0 1 105.6053441295547 0H528.0106882591094A52.79465587044535 52.79465587044535 0 0 1 580.8053441295548 52.7946558704454V567.5465587044534H593.9519028340081A39.6 39.6 0 0 1 633.5519028340082 607.1465587044535V673.2A39.6 39.6 0 0 1 593.9519028340081 712.8zM224.4053441295547 118.8000000000001A26.405344129554656 26.405344129554656 0 1 0 171.6106882591093 118.8000000000001V501.6053441295547A26.405344129554656 26.405344129554656 0 0 0 224.4053441295547 501.6053441295547zM343.2053441295547 118.8000000000001A26.405344129554656 26.405344129554656 0 1 0 290.4106882591093 118.8000000000001V501.6053441295547A26.405344129554656 26.405344129554656 0 0 0 343.2053441295547 501.6053441295547zM240.7744129554656 712.8L253.969068825911 739.2053441295546H379.6309311740891L392.8416194331984 712.8zM462.0213765182186 118.8000000000001A26.405344129554656 26.405344129554656 0 1 0 409.2267206477733 118.8000000000001V501.6053441295547A26.405344129554656 26.405344129554656 0 0 0 462.0213765182186 501.6053441295547z" />
    <glyph glyph-name="diary"
      unicode="&#xF12F;"
      horiz-adv-x="864.864" d=" M77.682528 792.0000396V0.0000395999999H220.681296V792.0000396H77.682528zM275.682528 792.0000396V0.0000395999999H787.187808V792.0000396H655.186752V505.9929996L583.686576 555.4929996L512.1863999999999 511.4942316V791.9889516000001H275.6952z" />
    <glyph glyph-name="document"
      unicode="&#xF130;"
      horiz-adv-x="864.864" d=" M581.8032000000001 792H109.1376V0H755.7264000000001V613.1664L581.8032000000001 792zM609.048 145.4112H254.5488V217.1664H609.048V145.4112zM609.048 280.8432H254.5488V352.5984000000001H609.048V280.8432zM609.048 416.4336H254.5488V488.1888H609.048V416.4336z" />
    <glyph glyph-name="dots"
      unicode="&#xF131;"
      horiz-adv-x="864.864" d=" M4.752 414.3744C4.752 367.1341716384732 43.0477716384732 328.8384000000001 90.288 328.8384000000001C137.5282283615268 328.8384000000001 175.824 367.1341716384732 175.824 414.3744C175.824 461.6146283615267 137.5282283615268 499.9104 90.288 499.9104C43.0477716384732 499.9104 4.752 461.6146283615267 4.752 414.3744z M346.896 414.3744C346.896 367.1341716384732 385.1917716384733 328.8384000000001 432.432 328.8384000000001C479.6722283615268 328.8384000000001 517.9680000000001 367.1341716384732 517.9680000000001 414.3744C517.9680000000001 461.6146283615267 479.6722283615268 499.9104 432.432 499.9104C385.1917716384733 499.9104 346.896 461.6146283615267 346.896 414.3744z M689.0400000000001 414.3744C689.0400000000001 367.1341716384732 727.3357716384733 328.8384000000001 774.576 328.8384000000001C821.8162283615268 328.8384000000001 860.1120000000001 367.1341716384732 860.1120000000001 414.3744C860.1120000000001 461.6146283615267 821.8162283615268 499.9104 774.576 499.9104C727.3357716384733 499.9104 689.0400000000001 461.6146283615267 689.0400000000001 414.3744z" />
    <glyph glyph-name="double-arrow-left"
      unicode="&#xF132;"
      horiz-adv-x="864.864" d=" M713.2752 0C696.0096000000001 0 687.2976000000001 4.2768 678.5856000000001 17.2656L334.6992 361.944C312.9984000000001 383.6448 312.9984000000001 414.5328 334.6992 431.7984L678.5856 775.6848C700.2864 797.3856 731.1744 797.3856 748.44 775.6848C765.7056 753.984 770.1408 723.096 748.44 705.8303999999999L439.2432000000001 396.4752L748.5984000000001 87.12C770.2992 65.4191999999999 770.2992 34.5312 748.5984000000001 17.2656C739.8864000000001 4.2768 721.9872 0 713.2752 0zM495.4752 0C478.2096000000001 0 469.4976000000001 4.2768 460.7856000000001 17.2656L116.2656 361.944C94.5648 383.6448 94.5648 414.5328 116.2656 431.7984L460.944 775.6848C482.6448 797.3856 513.5328 797.3856 530.7984 775.6848C552.4992000000001 753.984 552.4992000000001 723.096 530.7984 705.8303999999999L221.4432 396.4752L530.7984 87.12C552.4992000000001 65.4191999999999 552.4992000000001 34.5312 530.7984 17.2656C521.4528 4.2768 512.8992000000001 0 495.4752 0z" />
    <glyph glyph-name="double-arrow-right"
      unicode="&#xF133;"
      horiz-adv-x="864.864" d=" M155.5488 0C138.2832 0 129.5712 4.2768 120.8592 17.2656C99.1584 38.9663999999999 99.1584 69.8543999999999 120.8592 87.12L430.2144000000001 396.4752L121.0176 705.8304C99.3168 727.5312 99.3168 758.4192 121.0176 775.6848C142.7184 797.3856 173.6064 797.3856 190.872 775.6848L534.7584 431.7984C556.4592 410.0976000000001 556.4592 379.2096 534.7584 361.944L190.872 17.8992C181.5264 4.2768 164.2608 0 155.5488 0zM364.6368 0C347.3712 0 338.6592 4.2768 329.9472 17.2656C308.2464 38.9663999999999 308.2464 69.8543999999999 329.9472 87.12L639.3024 396.4752L330.1056000000001 705.8304C308.4048 727.5312 308.4048 758.4192 330.1056000000001 775.6848S382.6944000000001 797.3856 399.9600000000001 775.6848L743.8464 431.7984C765.5472000000001 410.0976000000001 765.5472000000001 379.2096 743.8464 361.944L399.9600000000001 17.8992C395.0496000000001 4.2768 382.0608 0 364.6368 0z" />
    <glyph glyph-name="download-center"
      unicode="&#xF134;"
      horiz-adv-x="864.864" d=" M100.4256 749.5488C100.4256 765.072 105.336 771.8832 115.9488 778.536C133.848 796.4352 160.4592000000001 796.4352 174.0816 778.536L436.7088 519.5519999999999L701.3952 778.536C719.2944000000001 796.4352 745.9056 796.4352 759.528 778.536C775.0512000000001 760.6368 777.4272000000001 734.6591999999999 759.528 721.0368L465.8544000000001 430.5312C459.0432 423.72 447.9552000000001 415.008 436.2336000000001 415.008C420.7104000000001 415.008 413.4240000000001 419.9184 406.6128000000001 430.5312L112.7808 721.0368C102.168 727.2144 100.4256 735.9264000000001 100.4256 749.5488zM855.9936 298.7424000000001V0H8.8704L9.504 298.7424000000001H102.8016V99.6336L761.4288000000001 99.0000000000001V298.7424000000001" />
    <glyph glyph-name="download"
      unicode="&#xF135;"
      horiz-adv-x="864.864" d=" M738.144 360.8352H864.864V66.8448000000001H0V360.8352H124.1856V199.584H738.144V360.8352zM657.9936 724.68L434.3328 501.0192L203.8608 725.3136L88.3872 607.3056L434.3328 268.1712L777.2688 612.216L657.9936 724.68z" />
    <glyph glyph-name="edit"
      unicode="&#xF136;"
      horiz-adv-x="864.864" d=" M728.0064000000001 523.512L801.9792000000001 602.712L601.2864000000001 792.792L527.3136000000001 713.592L728.0064000000001 523.512zM479.952 666.072L141.9264 306.9792L347.8464 111.6719999999999L685.7136 475.992L479.952 666.072zM94.4064 254.232L94.4064 254.232L62.7264 0.7919999999999L305.5536 64.1519999999999L305.5536 64.1519999999999L94.4064 254.232z" />
    <glyph glyph-name="employee"
      unicode="&#xF137;"
      horiz-adv-x="864.864" d=" M544.2624000000001 90.6048H692.2080000000001V42.2927999999999H544.2624000000001V90.6048zM831.2832 -1.5840000000001V72.072C831.2832 197.0496 719.928 190.872 629.0064 214.9488C538.0848 240.2928 542.9952 292.248 542.9952 292.248C542.9952 322.5024 581.9616 380.7936 587.5056 393.7824C593.6831999999999 407.4048 620.2944 451.9152 632.0160000000001 583.704C630.2736 797.8608 434.016 790.416 434.016 790.416C230.472 790.416 234.2736 583.0704 234.2736 583.0704S234.2736 482.8032 301.1184000000001 356.5584C301.1184000000001 356.5584 324.0864000000001 315.0576000000001 324.0864000000001 294.624S310.4640000000001 238.8672000000001 234.4320000000001 217.3248C234.4320000000001 217.3248 206.5536000000001 207.504 118.1664000000001 187.0704C29.6208 167.9039999999999 37.0656 79.3584 37.0656 79.3584V-1.5840000000001" />
    <glyph glyph-name="engine"
      unicode="&#xF138;"
      horiz-adv-x="864.864" d=" M790.7328 495L735.2928 514.6415999999999C733.7088 518.4431999999999 732.1248 522.4032 730.5408 526.2048L755.7264 579.4272L772.8336 615.5424L744.6383999999999 643.7376L680.0111999999999 708.3648000000001L651.9744000000001 736.56L615.8592000000001 719.4528L562.7952 694.2672C558.9936000000001 696.0096 555.192 697.5936 551.232 699.0192L531.5904 754.4592L518.1264000000001 792H478.2096000000001H386.8128000000001H346.8960000000002L333.5904000000001 754.4592L313.9488000000001 699.0192C309.9888000000001 697.4352 306.1872000000001 695.8512 302.3856000000001 694.2672L249.3216000000001 719.4528L212.8896 736.56L184.6944 708.3648000000001L120.0672 643.7376L91.872 615.5424L108.9792 579.4272L134.1648 526.3632C132.4224 522.5616 130.8384 518.76 129.4128 514.8L73.9728 495.1583999999999L36.432 481.6944V441.7776V350.3808V310.464L74.1312 297.1584000000001L129.5712 277.5168000000001C131.1552 273.7152000000001 132.7392 269.7552000000001 134.3232 265.9536000000001L109.1376 212.8896L91.872 176.616L120.0672 148.4208L184.6944 83.7936L212.8896 55.5983999999999L249.0048000000001 72.7055999999999L302.0688000000001 97.8911999999999C305.8704000000001 96.1487999999998 309.6720000000001 94.5647999999999 313.6320000000001 93.1391999999999L333.2736000000001 37.6991999999999L346.5792000000001 0.1583999999999H386.4960000000001H477.8928000000001H517.8096L531.1152000000001 37.6991999999999L550.7568 93.1391999999999C554.7168 94.7231999999999 558.5183999999999 96.3071999999999 562.32 97.8911999999999L615.384 72.7055999999999L651.4992000000001 55.5983999999999L679.6944000000001 83.7936L744.3216000000001 148.4208L772.5168000000001 176.616L755.4096000000001 212.7312L730.2240000000002 265.7952C731.9664000000001 269.5967999999999 733.5504000000002 273.3984000000001 734.9760000000001 277.3584L790.4160000000002 297L828.1152000000002 310.3055999999999V350.2224V441.6191999999999V481.5359999999999L790.7328 495zM771.8832000000001 350.2224L690.7824 321.3936000000001C685.2384000000001 301.9104000000001 677.4768000000001 283.3776000000001 667.8144000000001 266.1120000000001L704.88 188.3376000000001L640.2528 123.7104000000001L562.32 160.6175999999999C544.8960000000001 150.9551999999999 526.3632 143.352 507.0384000000001 137.6496L478.2096000000001 56.5487999999999H386.8128000000001L357.9840000000001 137.6496C338.5008000000001 143.1936 319.9680000000002 150.9551999999999 302.7024000000001 160.6175999999999L224.9280000000001 123.7103999999999L160.3008000000001 188.3376L197.2080000000001 266.112C187.5456000000001 283.536 179.7840000000001 301.9104000000001 174.2400000000001 321.3936L93.1392000000001 350.2224V441.6191999999999L174.2400000000001 470.4479999999999C179.7840000000001 489.9311999999999 187.5456000000001 508.4639999999999 197.2080000000001 525.7295999999999L160.3008000000001 603.5039999999999L224.9280000000001 668.1311999999999L302.7024000000001 631.0655999999999C320.1264000000001 640.7279999999998 338.6592000000001 648.3311999999999 357.9840000000001 654.0336L386.8128000000001 735.1343999999999H478.2096000000001L507.0384000000001 654.0336C526.5216 648.4895999999999 545.0544000000001 640.7279999999998 562.32 631.0655999999999L640.0944000000001 668.1311999999999L704.7216000000001 603.5039999999999L667.8144000000001 525.8879999999999C677.4768000000001 508.464 685.08 490.0896 690.7824 470.6064L771.8832000000001 441.7776V350.2224z M432.432 537.4512C354.4992000000001 537.4512 290.9808 473.9328 290.9808 396S354.4992 254.5487999999999 432.432 254.5487999999999S573.8832000000001 318.0672 573.8832000000001 396S510.3648 537.4512 432.432 537.4512zM432.432 311.0976C385.704 311.0976 347.5296 349.1136 347.5296 396S385.5456000000001 480.9023999999999 432.432 480.9023999999999S517.3344000000001 442.8863999999999 517.3344000000001 396S479.16 311.0976 432.432 311.0976z" />
    <glyph glyph-name="enlarge-2"
      unicode="&#xF139;"
      horiz-adv-x="864.864" d=" M828.432 509.0976L715.3344000000001 509.0976L715.3344000000001 678.9024L545.5296 678.9024L545.5296 792L828.432 792z M828.432 0L545.5296 0L545.5296 113.0976L715.3344000000001 113.0976L715.3344000000001 282.9024L828.432 282.9024z M319.3344 0L36.432 0L36.432 282.9024L149.5296 282.9024L149.5296 113.0976L319.3344 113.0976z M149.5296 509.0976L36.432 509.0976L36.432 792L319.3344 792L319.3344 678.9024L149.5296 678.9024z" />
    <glyph glyph-name="enlarge"
      unicode="&#xF13A;"
      horiz-adv-x="864.864" d=" M840.1536 384.12H723.7296V675.1007999999999H432.7488V791.5248H840.1536V384.12zM432.7488 0H25.344V407.4048H141.768V116.424H432.7488V0z" />
    <glyph glyph-name="error-fill"
      unicode="&#xF13B;"
      horiz-adv-x="864.864" d=" M0 792H864.864V0H0V792z M670.8240000000001 585.4464L624.7296 632.016L431.4816 438.768L240.1344 630.1152L194.04 583.704L385.3872000000001 392.6736L200.8512 207.9792L247.2624 161.568L431.4816 346.104L617.6016 159.9839999999999L664.0128 206.5536L478.0512000000001 392.6736z" />
    <glyph glyph-name="euro-coins"
      unicode="&#xF13C;"
      horiz-adv-x="864.864" d=" M0 431.4816H279.2592V364.7952H0V431.4816zM0 335.6496H279.2592V268.9631999999999H0V335.6496zM0 242.352H279.2592V175.6655999999999H0V242.352zM0 148.5792H279.2592V81.8928H0V148.5792zM309.5136 710.7408H588.7728000000001V644.0544H309.5136V710.7408zM309.5136 618.552H588.7728000000001V551.8656H309.5136V618.552zM309.5136 524.1456000000001H588.7728000000001V458.0928H309.5136V524.1456000000001zM588.7728 430.2144C548.0640000000001 412.3152 514.6416 364.7952 514.6416 364.7952H310.7808V430.2144L588.7728 430.2144L588.7728 430.2144zM484.3872000000001 242.352C484.3872000000001 242.352 485.6544000000001 201.6432 498.6432 176.9327999999999H308.2464V242.352H484.3872000000001zM484.3872000000001 270.2304000000001C484.3872000000001 270.2304000000001 485.6544000000001 310.9392 498.6432 335.6496H308.2464V270.2304000000001H484.3872000000001zM700.6032 409.7808C790.0992000000001 409.7808 864.864 336.9168 864.864 245.52C864.864 156.024 792 81.2592 700.6032 81.2592C609.84 81.2592 536.3424000000001 154.1232 536.3424000000001 245.52S608.4144000000001 409.7808 700.6032 409.7808zM741.9456 301.752L750.024 336.9168C740.2032 342.4608 727.8480000000001 344.9952 713.592 344.9952C689.5152 344.9952 667.1808 336.9168 652.4496 320.9184C642.6288 311.0976000000001 635.8176 296.8416000000001 631.3824 278.9424H617.1264L612.2159999999999 260.4096000000001H627.7392C627.7392 257.8752 627.7392 253.5984 627.7392 250.5888C627.7392 248.0544 627.7392 246.312 627.7392 243.7776H615.3839999999999L611.1071999999999 225.8784000000001H628.8480000000001C633.1248 209.2464 638.6688 194.9904 649.9152 182.6352C665.4384000000001 167.112 686.3472 158.5584 709.7904000000001 158.5584C724.0464000000001 158.5584 736.4016000000001 161.0928 747.4896000000001 166.6368V204.9696C738.7776000000001 196.2576 725.3136000000001 190.7136000000001 708.5232000000001 190.7136000000001C694.9008 190.7136000000001 685.08 196.2576 676.368 204.9696C672.0912000000001 210.5136 668.2896 217.3248000000001 667.6560000000001 226.0368000000001H724.5216L728.7984 243.9360000000001H664.4879999999999C664.4879999999999 246.4704000000002 664.4879999999999 250.7472000000002 664.4879999999999 252.648C664.4879999999999 255.1824000000002 664.4879999999999 258.1920000000001 664.4879999999999 260.7264000000002H731.1744L735.4512 278.6256000000001H666.864C668.1312 286.7040000000002 672.408 292.8816000000001 676.6848 298.4256000000002C684.7632000000001 307.1376000000002 694.5840000000001 312.6816000000001 711.216 312.6816000000001C725.3136 312.2064000000001 733.8672 307.9296 741.9456 301.752zM588.7728 84.2687999999999C548.0640000000001 102.168 514.6416 149.688 514.6416 149.688H310.7808V84.2687999999999H588.7728z" />
    <glyph glyph-name="euro"
      unicode="&#xF13D;"
      horiz-adv-x="864.864" d=" M699.1776 139.8672L692.5248 137.6496000000001C500.3856 40.3920000000001 377.1504 133.6896000000001 338.3424 290.0304H661.4784000000001V362.1024H326.7792000000001C325.6704000000001 375.7248000000001 325.0368000000001 389.5056 325.0368000000001 403.6032C325.0368000000001 412.3152 325.6704000000001 420.552 326.1456 428.9472H661.4784000000001V501.0192H336.7584000000001C375.5664 660.6864 511.1568 747.4896 684.9216 659.5776L715.9680000000001 746.856C666.5472000000001 780.2784 610.4736 792 549.3312000000001 792C392.04 792 259.3008 670.5072 221.76 501.0192H143.5104V428.9472H211.9392C211.464 420.552 210.8304000000001 412.1568000000001 210.8304000000001 403.6032C210.8304000000001 389.664 211.3056000000001 375.7248 212.0976000000001 362.1024H143.5104V290.0304H220.4928C249.6384 125.928 348.48 4.1184 546.3216 0C610.7904 -1.2672 670.1904 16.9487999999999 721.3536 53.856L699.1776 139.8672z" />
    <glyph glyph-name="event"
      unicode="&#xF13E;"
      horiz-adv-x="864.864" d=" M497.6928 311.256H367.0128000000001V439.8768H497.6928V311.256zM314.1072000000001 135.5904000000001H183.4272V264.2112H314.1072000000001V135.5904000000001zM497.6928 135.5904000000001H367.0128000000001V264.2112H497.6928V135.5904000000001zM681.2784 311.256H550.5984000000001V439.8768H681.2784V311.256zM314.1072000000001 311.256H183.4272V439.8768H314.1072000000001V311.256zM210.9888 745.1136C210.9888 770.9328 231.8976 792 257.8752 792C283.6944000000001 792 304.7616 771.0912 304.7616 745.1136V647.6976C304.7616 621.8784 283.8528 600.8112 257.8752 600.8112C232.056 600.8112 210.9888 621.72 210.9888 647.6976V745.1136zM561.0528 745.1136C561.0528 770.9328 581.9616 792 607.9392 792C633.7584 792 654.8256000000001 771.0912 654.8256000000001 745.1136V647.6976C654.8256000000001 621.8784 633.9168000000001 600.8112 607.9392 600.8112C582.12 600.8112 561.0528 621.72 561.0528 647.6976V745.1136zM755.568 252.0144V506.088C755.568 511.1568 751.1328 515.4336000000001 746.2224000000001 515.4336000000001H118.6416C113.5728 515.4336000000001 109.296 511.1568 109.296 506.088V69.5375999999999C109.296 64.4688 113.5728 60.192 118.6416 60.192H587.5056C604.6128 60.192 612.0576 69.2207999999999 613.1664 85.8528V183.7439999999999C613.4832 211.9392 628.0559999999999 225.8784000000001 655.776 226.1952H729.9072C748.1232 226.6704 755.0928 236.4912 755.568 252.0144M65.736 715.6512H185.1696V647.5391999999999C185.1696 607.4639999999999 217.6416 574.992 257.7168 574.992C297.7920000000001 574.992 330.264 607.4639999999999 330.264 647.5391999999999V715.6512H535.392V647.5391999999999C535.392 607.4639999999999 567.864 574.992 607.9392 574.992C648.0144 574.992 680.4864000000001 607.4639999999999 680.4864000000001 647.5391999999999V715.6512H799.128C808.1568 715.6512 815.4431999999999 708.2064 815.4431999999999 699.336V227.1456C815.4431999999999 215.8992 813.2256 206.8703999999999 804.8303999999999 198.7919999999999L646.272 16.3152C636.9264000000001 5.544 621.4032000000001 0 607.3056 0H65.5776C56.5488 0 49.2624 7.4448 49.2624 16.3152V699.336C49.2624 708.3648000000001 56.7072 715.6512 65.736 715.6512" />
    <glyph glyph-name="expand-2"
      unicode="&#xF13F;"
      horiz-adv-x="864.864" d=" M830.4911999999999 446.8464L491.6736 446.8464L491.6736 791.208L373.1904 791.208L373.1904 446.8464L34.3728 446.8464L34.3728 333.9072L373.1904 333.9072L373.1904 0.7919999999999L491.6736 0.7919999999999L491.6736 333.9072L830.4911999999999 333.9072z" />
    <glyph glyph-name="expand"
      unicode="&#xF140;"
      horiz-adv-x="864.864" d=" M828.432 314.5824H513.8496V0H348.6384V314.5824H36.432V479.7936H348.48V792H513.6912000000001V479.952H828.432V314.5824z" />
    <glyph glyph-name="expert"
      unicode="&#xF141;"
      horiz-adv-x="864.864" d=" M385.3872000000001 212.256H476.3088L446.0544 151.5888H415.8L385.3872000000001 212.256zM627.264 555.5088C629.7984 638.9856 618.552 788.1984 434.808 791.8416C250.5888 796.9104 231.4224 632.3328 236.3328 556.776C242.5104 480.744 298.2672 363.2112 298.2672 363.2112S323.6112 313.7904000000001 318.7008 279.7344000000001C316.1664 244.4112 242.6688 220.3344 192.456 206.0784C181.368 203.544 134.3232 194.9904 130.5216 192.456C27.8784 173.2896 36.432 84.7439999999999 36.432 84.7439999999999V0H386.6544L409.6224 122.4431999999999H454.1328L478.2096 0H828.432V81.1007999999999C828.432 81.1007999999999 837.144 170.7552 725.7888 196.0991999999999C725.7888 196.0991999999999 641.0448 213.9984 611.8992 221.4431999999999C538.8767999999999 244.4111999999999 537.6096 290.6639999999999 537.6096 290.6639999999999C536.3424 313.6319999999999 556.1424 352.5983999999999 556.1424 352.5983999999999S622.3536 443.0448 627.264 555.5088z" />
    <glyph glyph-name="external"
      unicode="&#xF142;"
      horiz-adv-x="864.864" d=" M565.488 728.64V662.112H751.2912L438.7680000000001 349.5888L485.8128 302.544L798.336 615.0672V429.264H864.864V728.64H565.488zM632.0160000000001 129.8879999999999H66.528V495.792H465.696V562.3199999999999H0V63.36H698.544V329.472H632.0160000000001V129.8879999999999z" />
    <glyph glyph-name="eye"
      unicode="&#xF143;"
      horiz-adv-x="864.864" d=" M431.3232000000001 467.28C391.0896 467.28 358.3008000000001 434.4912 358.3008000000001 394.2576S391.0896 321.2352 431.3232000000001 321.2352C471.5568 321.2352 504.3456000000001 354.024 504.3456000000001 394.2576C504.3456 434.3328 471.5568 467.28 431.3232000000001 467.28zM0 394.0992C238.2336 48.9455999999999 624.4128000000001 48.9455999999999 862.8048000000001 394.0992C624.4128000000001 739.0944 238.2336 739.0944 0 394.0992zM431.3232000000001 221.4432000000001C336.2832 221.4432000000001 258.8256 298.9008 258.8256 393.9408S336.2832 566.4384 431.3232000000001 566.4384S603.8208000000001 488.9808 603.8208000000001 393.9408S526.5216 221.4432000000001 431.3232000000001 221.4432000000001z" />
    <glyph glyph-name="facts-alarm"
      unicode="&#xF144;"
      horiz-adv-x="864.864" d=" M371.77078752 89.2842192000001C371.77078752 88.1513740800001 371.77078752 88.1513740800001 371.77078752 87.0185131200001C371.77078752 59.82996096 400.0922006400001 38.3056819200001 435.21074784 38.3056819200001C470.32931088 38.3056819200001 498.650724 59.82996096 498.650724 87.0185131200001C498.650724 88.1513740800001 498.650724 89.2842192000001 498.650724 89.2842192000001C478.25930592 88.1513740800001 457.86788784 87.0185131200001 436.3436088000001 87.0185131200001C413.68648464 87.0185131200001 392.1622056 87.0185131200001 371.77078752 89.2842192000001M36.445248576 349.84122624C36.445248576 414.41406336 60.23523528 472.1897347199999 98.752359024 517.5039988799999L73.829514528 542.42684496C28.515251952 491.44830768 1.3266951984 423.47690352 1.3266951984 349.84122624C1.3266951984 277.33840992 27.382395744 211.6327276799999 70.43094432 160.6541904L95.353788816 185.57703648C59.102379072 229.7584396799999 36.445248576 287.53412688 36.445248576 349.84122624M99.885215232 349.84122624C99.885215232 396.2883513599999 116.878063104 439.3368936 144.066620016 472.1897347199999L119.143777104 497.1125808C85.158079776 457.4626056 64.766661696 405.35120736 64.766661696 349.84122624C64.766661696 295.46412192 84.025223568 245.6184297600001 115.745206896 205.96845456L140.668051392 230.89130064C115.745206896 263.74414176 99.885215232 304.5269779200001 99.885215232 349.84122624M165.59090064 349.84122624C165.59090064 378.1626551999999 174.6537408 404.2183464 190.51374672 425.74262544L165.59090064 450.6654715199999C144.066620016 423.47690352 130.472342352 388.35835632 130.472342352 350.9740872C130.472342352 314.72267904 141.8009076 281.86983792 162.19231776 254.6812857599999L187.11516384 279.6041318400001C174.6537408 298.86268896 165.59090064 323.78553504 165.59090064 349.8412262400001M473.72787792 674.971059312C473.72787792 653.4467850240001 456.73502688 636.453937152 435.21074784 636.453937152C413.68648464 636.453937152 396.6936336 653.446785024 396.6936336 674.971059312C396.6936336 696.4953351839999 413.68648464 713.488183056 435.21074784 713.488183056C456.73502688 713.488183056 473.72787792 696.495335184 473.72787792 674.971059312M678.77491968 185.57703648C678.77491968 186.70989744 678.77491968 186.70989744 678.77491968 185.57703648C678.77491968 196.9055985599999 673.11063072 203.70273264 673.11063072 203.70273264C673.11063072 203.70273264 584.74782432 298.86268896 584.74782432 468.79116768C584.74782432 567.34969104 533.7692712 606.99966624 491.85358992 623.99251728C503.182152 638.719649568 511.11214704 655.712499024 511.11214704 674.9710593120001C511.11214704 716.8867516800001 477.12644496 750.872449008 435.21074784 750.872449008C393.29506656 750.872449008 359.30936448 716.8867516800001 359.30936448 674.9710593120001C359.30936448 655.7124990240001 366.10649856 637.58679336 378.5679216 625.12537824C336.65224032 609.26538816 285.6736872 569.61541296 285.6736872 469.92402864C285.6736872 299.9955499200001 197.3108808 204.8355936000001 197.3108808 204.8355936000001C197.3108808 204.8355936000001 190.51374672 196.9055985600001 191.64659184 187.84274256C191.64659184 187.84274256 191.64659184 186.7098974400001 191.64659184 186.7098974400001C191.64659184 144.7942003200001 300.40083216 110.8084982400001 435.21074784 110.8084982400001C568.88783424 109.6756372800001 678.77491968 143.6613393600001 678.77491968 185.5770364800001M737.683452 349.8412262400001C737.683452 387.22549536 725.2220289600001 422.3440584000001 702.5649048 449.5326105600001L677.64205872 424.6097644800001C693.5020488 403.0854854400001 702.5649048 377.0297942400001 702.5649048 348.7083811200001C702.5649048 322.6526740800001 694.63490976 297.7298280000001 679.9077648000001 277.33840992L704.8306108800001 252.41556384C726.3548899200001 280.7369769600001 737.6834520000001 313.5898180800001 737.6834520000001 349.8412262400001M805.6548403200001 349.8412262400001C805.6548403200001 406.48406832 785.2634222400001 457.4626056000001 751.2777360000001 497.1125808L726.3548899200001 472.18973472C753.5434420800001 439.3368936000001 770.53629312 396.2883513600001 770.53629312 349.8412262400001C770.53629312 305.6598230400001 754.67630304 263.7441417600001 729.7534569600001 230.8913006400001L754.6763030400001 205.9684545600001C786.3962832000001 244.4855688 805.6548403200001 295.4641219200001 805.6548403200001 349.8412262400001M867.9619555200001 349.8412262400001C867.9619555200001 423.47690352 840.7734033600001 491.4483076800001 795.4591392000001 542.42684496L770.53629312 517.50399888C809.0534232 472.1897347200001 832.8434083200001 413.2812024000001 832.8434083200001 349.8412262400001C832.8434083200001 287.5341268800001 810.1862683200001 229.7584396800001 773.93486016 185.5770364800001L798.8577062400001 160.6541904000001C841.9062643200001 211.63272768 867.9619555200001 277.33840992 867.9619555200001 349.8412262400001" />
    <glyph glyph-name="facts-rating"
      unicode="&#xF145;"
      horiz-adv-x="864.864" d=" M606.7093032 616.81557168L589.31417952 599.87480256zM643.3818336 595.39620096L672.0708139200001 599.420448L651.4303276800001 619.73638848L656.4930926400001 648.295539408L630.7249449600001 634.924662768L605.1515184000001 648.555168096L609.8897376000001 619.9311096L589.0545460800001 599.80989024L617.6785982400002 595.52600976L630.4004150400002 569.43333216zM487.7993736000001 581.57096976L527.45764896 587.0880892800001L498.9634056 615.1928904L505.90846944 654.591533904L470.40424992 636.15789864L435.0298392 654.980976144L441.5854608 615.4525080000001L412.76668752 587.67225264L452.36005056 581.7007944000001L469.88499888 545.7422203200001zM580.0324464 688.148537472L636.11223984 696.002304096L595.7399764800001 735.725488608L605.6058729599999 791.48074268736L555.36772896 765.38806344L505.3892184000001 792L514.6709356800001 736.114932432L473.90923008 696.846097728L529.9241112 688.40816616L554.71865328 637.5209496479999zM318.7811088000001 513.0290087999999H268.99731936C268.99731936 513.0290087999999 270.68491296 364.91086368 329.6855232 286.69772736C329.6855232 286.69772736 296.12851488 426.96211536 318.7811088000001 512.96409648M717.37600176 480.96487296C704.8489219200001 390.094848 651.5601364800001 305.71553232 565.1038008 269.43242832A487.58261904 487.58261904 0 0 1 588.53529504 318.43733328C647.4709929600001 357.38163648 671.3568259200001 417.6803822399999 681.0280012800001 462.9855859199999H623.52024768C624.5587656 473.50054224 625.3376500800001 484.2751319999999 625.8569011200001 495.4391639999999H704.8489219200001A12.981432816000003 12.981432816000003 0 0 0 717.3111052800001 481.28940288M277.17562224 269.2377072C190.32982848 305.71553232 136.911240576 390.094848 124.384157568 481.28940288A10.7096820336 10.7096820336 0 0 0 134.964026208 495.11463408H216.2278008C216.81196416 484.21023552 217.52593632 473.43564576 218.62936656 462.661056H160.92689184C170.59805136 417.22602768 194.61370896 356.79747312 253.8739526400001 317.9180664A486.80373455999995 486.80373455999995 0 0 1 277.3054310400001 268.9780737600001M527.1331032 35.3122862399999V0.97639344H315.21121632V35.3122862399999A85.93708464 85.93708464 0 0 1 327.47867856 36.1560671999999C372.26461536 42.64679232 384.7267987200001 83.73302784 386.93364336 112.03255008H455.21597088C457.6175366400001 81.3314620799999 470.53405872 35.3122862399999 526.6138521600001 35.3122862399999M592.6893508800001 531.85209264H248.6813788800001C248.6813788800001 288.32040864 368.8894440000001 225.7499059200001 385.7653008000001 144.22651056H455.92995888C472.48128576 225.7499059200001 593.0138807999999 288.32040864 593.0138807999999 531.85209264" />
    <glyph glyph-name="fax"
      unicode="&#xF146;"
      horiz-adv-x="901.1438114364232" d=" M778.89068808794 433.9969136454921H739.830631011521V613.6262974315612L562.0429130113096 791.9162879188247H217.1491385688616A55.96989747383998 55.96989747383998 0 0 1 161.3299228411373 736.1807842722757V433.9969136454921H122.3535778458937C55.1495190783215 433.9969136454921 0 376.4197442130853 0 306.0346263608499V128.0459993658176C0 57.5604270161716 55.1495190783215 0 122.3535778458937 0H778.89068808794C846.0947468555121 0 901.110326603953 57.5604270161716 901.110326603953 128.0459993658176V305.9509142796745C901.1438114364232 376.4197442130853 846.0947468555121 433.9969136454921 778.89068808794 433.9969136454921zM247.5198816192792 705.7932988056231H502.7412747066905V594.8245639995772A39.930662720642644 39.930662720642644 0 0 1 542.655195011098 554.9106436951697H653.6406722333791V433.9969136454921H247.5198816192792zM184.1665785857732 114.1665363069443A77.13231159496881 77.13231159496881 0 1 0 261.298890180742 191.2988479019131A77.11556917873375 77.11556917873375 0 0 0 184.1665785857732 114.1665363069443z" />
    <glyph glyph-name="fb"
      unicode="&#xF147;"
      horiz-adv-x="864.864" d=" M493.2576 792C409.7808 792 341.0352 723.888 341.0352 639.7776V548.2224H219.0672V426.2544000000001H341.0352V0H463.0031999999999V426.2544H600.336L630.5904 548.2224H463.0032V639.7776C463.0032 656.4096 476.6256000000001 670.032 493.2576000000001 670.032H645.48V792H493.2576z" />
    <glyph glyph-name="feed"
      unicode="&#xF148;"
      horiz-adv-x="864.864" d=" M828.432 0H668.1312C668.1312 348.9552 385.3872000000001 631.6992 36.432 631.6992V792C472.6656 792 828.432 436.2336 828.432 0zM582.7536 0H422.6112000000001C422.6112000000001 213.5232 248.0544000000001 386.1792 36.432 386.1792V546.3216C338.976 546.3216 582.7536 302.544 582.7536 0zM152.064 231.264C215.8992 231.264 267.6960000000001 179.4671999999999 267.6960000000001 115.632S215.8992 0 152.064 0S36.432 51.7968 36.432 115.632S88.2288 231.264 152.064 231.264z" />
    <glyph glyph-name="flag"
      unicode="&#xF149;"
      horiz-adv-x="864.864" d=" M83.4768 792H175.032V0H83.4768V792zM781.3872 727.6896V311.256C781.3872 311.256 737.5104000000001 269.7552 644.688 269.7552C553.1328 269.7552 489.9312 371.9232 405.8208 371.9232S235.6992 309.3552 235.6992 309.3552V726.4224C235.6992 726.4224 295.0992 784.5552 396 784.5552C498.168 784.5552 559.9440000000001 681.2784 651.4992000000001 681.2784S781.3872 727.6896 781.3872 727.6896z" />
    <glyph glyph-name="gallery-2"
      unicode="&#xF14A;"
      horiz-adv-x="864.864" d=" M611.8992000000001 505.6128C657.36 505.6128 694.2672 542.0448 694.2672 586.872C694.2672 631.6992 657.36 668.1312 611.8992000000001 668.1312C566.4384000000001 668.1312 529.5312 631.6992 529.5312 586.872C529.5312 542.0448 566.4384000000001 505.6128 611.8992000000001 505.6128zM0 792V142.56H864.864V792H0zM823.6800000000001 751.4496V346.104L706.6224000000001 415.8C695.2176000000001 422.4528 676.6848000000001 422.4528 665.2800000000001 415.8L497.2176 315.8496C485.8128 309.1968 469.0223999999999 311.4144 459.8351999999999 320.76L235.8576 551.3904C226.512 560.8944 211.6224 560.8944 202.4352 551.3904L41.184 385.3872V751.4496H823.6800000000001z" />
    <glyph glyph-name="gallery"
      unicode="&#xF14B;"
      horiz-adv-x="864.864" d=" M786.456 41.976H0V592.7328H157.2912V553.2912H39.4416V81.4176H747.0144V199.2672000000001H786.4559999999999C786.456 199.2672 786.456 41.976 786.456 41.976zM864.864 199.2672H157.2912V750.024H864.864V199.2672zM196.7328 238.7088H825.8976V710.5824H196.7328V238.7088zM817.8191999999999 231.1056L632.9664 400.4352L518.9184 325.1952L330.2640000000001 478.6848L184.8528000000001 348.9552L161.0928000000001 376.5168L330.2640000000001 530.0064L522.72 372.8736L636.768 451.2816L845.3808000000001 258.192L817.8191999999999 231.1056zM691.8912 513.8496C656.7264 513.8496 624.888 545.2128 624.888 580.8528S656.2512 647.856 691.8912 647.856C727.6896 647.856 758.8944 616.4928 758.8944 580.8528S727.056 513.8496 691.8912 513.8496zM691.8912 608.4144C676.2096000000001 608.4144 664.3296000000001 596.5344 664.3296000000001 580.8528S676.2096000000001 553.2912 691.8912 553.2912C707.5728 553.2912 719.4528 565.1712 719.4528 580.8528S707.5728 608.4144 691.8912 608.4144z" />
    <glyph glyph-name="gear"
      unicode="&#xF14C;"
      horiz-adv-x="864.864" d=" M829.5408000000001 338.6592V448.272C774.7344 468.2304 739.8864000000001 473.1408 724.9968000000001 513.0576L724.9968000000001 513.0576C705.0384 552.9744 729.9072000000001 582.7536 754.9344000000001 637.56L680.1696000000001 712.3248C630.2736 687.456 600.336 667.4976 555.5088000000001 682.3872L555.5088000000001 682.3872C510.6816 702.3456 505.7712 737.1936 485.8128 792H376.2000000000001C356.2416 737.1936 351.3312 702.3456 311.4144 687.456L311.4144 687.456C266.5872 667.4976 241.7184 687.456 186.912 712.3248L112.3056 637.56C137.1744 587.8224 157.1328 557.8848 142.2432 513.0576L142.2432 513.0576C122.2848 473.1408 87.4368 468.2304 32.6304 448.272V338.6592C87.4368 318.7008 122.2848 313.7904000000001 137.1744 273.8736L137.1744 273.8736C157.1328 229.0464000000001 132.2640000000001 204.1776 107.2368 149.3712000000001L182.0016000000001 74.6064000000001C231.7392000000001 99.4752000000001 261.6768 119.4336000000001 306.504 104.5440000000001L306.504 104.5440000000001C346.4208 84.5856 356.2416 49.7376 371.2896 0H480.9024000000001C500.8608000000001 54.8064000000001 505.7712 89.6544000000001 550.5984000000001 104.5440000000001L550.5984000000001 104.5440000000001C590.5152 119.4336000000001 620.2944000000001 99.6336 675.1008 74.6064000000001L749.8656000000001 149.3712000000001C724.9968000000001 199.1088000000001 705.0384 229.0464000000001 719.9280000000001 273.8736000000001C739.8864000000001 313.7904000000001 774.7344 318.8592 829.5408000000001 338.6592zM431.0064000000001 179.3087999999999C311.4144000000001 179.3087999999999 216.8496000000001 273.8735999999999 216.8496000000001 393.4656S311.4144000000001 607.6224 431.0064000000001 607.6224S645.1632000000001 513.0575999999999 645.1632000000001 393.4656S550.5984000000001 179.3087999999999 431.0064000000001 179.3087999999999z" />
    <glyph glyph-name="globe-filled"
      unicode="&#xF14D;"
      horiz-adv-x="864.864" d=" M650.2320000000001 365.7456H830.9664C816.0768000000002 190.0799999999999 693 55.1231999999999 530.3232 14.8896C602.5536 115.1568 645.3216 215.2656 650.2320000000001 365.7456zM833.3424000000001 415.8C825.8976 591.4656 700.2864000000001 741.9456 530.1648000000001 783.9216C602.5536000000001 678.744 647.6976000000001 540.7776 650.2320000000001 415.8H833.3424000000001zM410.0976 792C324.72 689.3568 272.1312 566.1216 269.5968 415.8H595.7424000000001C592.7328 566.1216 540.144 686.8224 454.7664 792C447.3216000000001 792 439.8768000000001 792 432.432 792C424.9872000000001 792 417.5424000000001 792 410.0976 792zM33.8976 365.7456C48.7872 190.0799999999999 171.864 55.1231999999999 334.5408000000001 14.8896C264.6864000000001 115.1568 221.9184000000001 215.424 214.4736000000001 365.7456H33.8976zM454.7664 0C535.2336 100.2672 587.8224 215.2656 595.2672 365.7456H269.7552000000001C277.2 215.424 327.2544000000001 97.8911999999999 410.2560000000001 0C417.7008 0 425.1456 0 432.5904000000001 0C439.8768 0 447.3216 0 454.7664 0zM31.5216 415.8H212.256C214.7904 541.4112 259.9344 678.744 332.3232000000001 783.9216C166.9536 744.3216 38.9664 591.4656 31.5216 415.8z" />
    <glyph glyph-name="globe-giant"
      unicode="&#xF14E;"
      horiz-adv-x="864.864" d=" M828.432 396C828.432 176.9327999999999 651.4992000000001 0 432.432 0S36.432 176.9327999999999 36.432 396S213.3648 792 432.432 792C651.4992000000001 790.7328 828.432 615.0672 828.432 396zM279.576 678.1104C181.8432 624.888 142.8768 533.9664 142.8768 533.9664H233.7984C243.7776 594.6336 279.576 678.1104 279.576 678.1104zM632.3328 532.6992H723.2544C723.2544 532.6992 684.2879999999999 623.6208 586.5551999999999 676.8432C585.288 678.1104 622.3536 594.6336 632.3328 532.6992zM461.5776 712.1664V531.432H564.2208C567.864 532.6992 541.4112 683.0208 461.5776 712.1664zM299.3760000000001 532.6992H402.0192V713.4336C324.7200000000001 683.0208 299.3760000000001 532.6992 299.3760000000001 532.6992zM585.288 106.4448C682.3872 159.6672 721.9872 250.5888 721.9872 250.5888H631.0656000000001C622.3536 189.9215999999999 585.288 106.4448 585.288 106.4448zM233.7984 253.1232H142.8768C142.8768 253.1232 181.8432 162.2016 279.576 108.9792C279.576 106.4448 243.7776 189.9215999999999 233.7984 253.1232zM402.1776000000001 72.3888V253.1232H299.3760000000001C299.3760000000001 253.1232 324.7200000000001 98.3664 402.1776000000001 72.3888zM567.864 253.1232H465.2208V72.3888000000001C541.4112 98.3664 567.864 253.1232 567.864 253.1232zM117.5328 457.9344C117.5328 457.9344 111.3552 422.6112 111.3552 398.5344S112.6224 340.4015999999999 118.8 324.8784H225.2448C225.2448 324.8784 222.7104 375.5664000000001 222.7104 391.7232C222.7104 408.3552 223.9776 456.0336 223.9776 458.568H117.5328V457.9344L117.5328 457.9344zM642.1536 457.9344C642.1536 455.4 643.4208 407.2464 643.4208 391.0896C643.4208 374.4576 640.8864 324.2448 640.8864 324.2448H747.3312C753.5088 339.768 754.776 374.9328 754.776 397.9008C754.776 421.9776 748.5984 457.3008 748.5984 457.3008H642.1536L642.1536 457.9344L642.1536 457.9344zM299.3760000000001 457.9344C299.3760000000001 457.9344 296.8416000000001 409.6224 296.8416000000001 393.624C296.8416000000001 376.992 299.3760000000001 326.7792 299.3760000000001 324.2448H400.9104000000001V456.6672H299.3760000000001V457.9344zM461.5776 456.6672V323.6112H563.1120000000001C563.1120000000001 326.1456000000001 565.6464000000001 376.8336000000001 565.6464000000001 392.9904C565.6464000000001 409.6224000000001 563.1120000000001 457.3008 563.1120000000001 457.3008H461.5776V456.6672z" />
    <glyph glyph-name="gp"
      unicode="&#xF14F;"
      horiz-adv-x="864.864" d=" M472.1904000000001 761.5872C472.1904000000001 761.5872 302.3856000000001 761.5872 246.3120000000001 761.5872C145.0944 761.5872 49.4208000000001 685.08 49.4208000000001 596.2176C49.4208000000001 505.4544 118.4832000000001 431.9568 221.6016000000001 431.9568C229.0464000000001 431.9568 235.8576000000001 431.9568 242.6688000000001 432.5904C235.8576000000001 419.6016 230.9472000000001 405.504 230.9472000000001 390.6144C230.9472000000001 365.2704 244.5696000000001 344.9952 261.8352000000001 328.2048C248.8464000000001 328.2048 236.4912000000001 327.5712 222.3936000000001 327.5712C96.7824 327.7296 -0.1584 247.4208 -0.1584 164.736C-0.1584 83.3184 105.9696 31.9967999999999 231.264 31.9967999999999C374.4576 31.9967999999999 453.4992 113.4143999999999 453.4992 194.9904C453.4992 260.4096000000001 434.3328 300.0096000000001 374.4576 341.9856000000001C354.024 356.2416 315.216 391.4064 315.216 412.3152000000001C315.216 436.3920000000001 322.0272000000001 448.7472 358.4592 477.1008C396.1584000000001 506.0880000000001 421.9776000000001 547.4304000000001 421.9776000000001 594.9504000000001C421.9776000000001 651.816 396.6336000000001 707.2560000000001 349.1136000000001 725.7888H420.7104000000001L472.1904000000001 761.5872L472.1904000000001 761.5872zM393.1488 208.4544C395.0496 201.0096 396.1584000000001 193.0896 396.1584000000001 185.0112C396.1584000000001 118.9584 353.5488 67.7952 231.264 67.7952C144.144 67.7952 81.8928 122.76 81.8928 188.8128000000001C81.8928 253.5984 159.6672 307.2960000000001 246.7872000000001 306.0288000000001C267.2208000000001 306.0288000000001 285.7536 302.3856 303.0192 296.8416000000001C349.9056000000001 264.6864000000001 383.9616000000001 246.1536 393.1488 208.4544L393.1488 208.4544zM254.232 454.7664C196.2576 456.6672 140.6592 520.1856 130.8384 596.6928C121.0176 673.1999999999999 159.8256 731.808 217.9584 730.0656C275.9328 728.1648 331.5312 667.0224 341.3520000000001 590.5152C351.8064 513.5328 312.8400000000001 453.024 254.232 454.7664zM702.9792000000001 599.8607999999999V761.5872H648.648V599.2272H486.9216V544.896H648.648V382.536H702.9792000000001V545.5296H864.864V599.8607999999999C864.864 599.8607999999999 702.9792000000001 599.8607999999999 702.9792000000001 599.8607999999999z" />
    <glyph glyph-name="hand-drag"
      unicode="&#xF150;"
      horiz-adv-x="864.864" d=" M270.8640000000001 733.8672C301.4352 740.3616 332.9568 743.8464 364.4784 743.8464C463.3200000000001 743.8464 531.7488 711.216 532.5408 710.8992L546.3216 738.4608C543.312 739.728 471.0816 774.4176 364.6368 774.4176C329.7888 774.4176 295.2576 770.4576 261.6768 763.1712L252.4896 792L189.6048 724.5216L280.0512000000001 704.4048L270.8640000000001 733.8672zM674.784 161.2512000000001L642.4704 161.2512000000001C642.4704 227.304 642.312 394.0992 642.4704 400.4352C642.9456000000001 419.1264000000001 631.0656000000001 446.5296 607.7808000000001 446.5296C585.7632000000001 446.5296 584.1792000000002 440.1936 577.3680000000002 435.9168C572.2992000000002 455.8752 562.4784000000002 467.5968 545.3712000000002 472.6656C539.6688000000001 474.408 533.9664000000001 475.5168 527.9472000000002 475.3584C516.2256000000002 475.0416 504.8208000000001 470.448 495.6336000000002 462.528C489.7728000000002 483.12 472.6656000000002 496.9007999999999 451.7568000000002 496.4256C438.1344000000002 495.9504 425.3040000000002 489.9312 415.8000000000002 479.3184L414.8496000000002 622.9872C415.4832000000001 648.4896 402.9696000000002 669.5568 382.6944000000002 676.8432C377.1504000000002 678.744 371.2896000000002 679.6944 365.1120000000002 679.5360000000001C335.9664000000002 678.744 313.1568000000002 653.0832 312.2064000000002 619.8192L310.6224000000002 393.3072C304.6032000000002 389.664 246.3120000000002 294.1488 246.3120000000002 268.488C246.3120000000002 250.7472 261.5184000000002 195.7824000000001 272.9232000000002 160.4592L243.1440000000002 160.4592L243.936 0L675.1008 0.9503999999999L674.784 161.2512000000001zM271.0224 266.5872C271.0224 287.9712 306.9792 337.5504 310.6224000000001 340.4016000000001L309.9888 264.2112C309.9888 257.8752 314.7408 252.8064000000001 320.9184 253.1232C326.9376000000001 253.44 331.848 258.8256 332.0064 265.32L334.5408 620.7696C335.1744 641.2032 347.5296 655.9344 364.7952 656.4096C381.744 656.8848 393.624 642.312 393.1488 622.0368L394.416 405.504C394.416 399.4848 399.0096000000001 393.1488 408.1968 393.1488C417.384 393.1488 418.968 399.8016 420.0768 405.6624C420.0768 405.6624 420.7104 441.7776 420.7104 442.4112C420.8688 450.9648 424.1952 458.8848 429.4224 464.7456C434.6496 470.6064 440.0352 473.1408 447.4799999999999 473.2992C462.6864 473.7744 468.5472 458.4096 468.5472 443.0448V419.76C468.5472 413.424 477.4176 403.2864 488.8224 403.2864C500.2271999999999 403.2864 503.3951999999999 414.6912 503.7119999999999 421.1856C503.7119999999999 421.1856 503.3951999999999 453.6576 528.5808 453.6576C549.6479999999999 453.6576 555.8255999999999 435.1248 555.3503999999999 422.136C555.3503999999999 422.136 555.9839999999998 402.1776 555.9839999999998 393.1488S564.6959999999998 381.2688 570.5567999999998 381.4272C576.4175999999998 381.5856000000001 583.2287999999999 386.496 583.5455999999998 394.416C583.8623999999998 402.1776 580.6943999999997 422.928 601.2863999999998 422.928C614.9087999999998 422.928 620.6111999999998 408.672 620.4527999999998 399.8016C619.3439999999998 359.7264 619.9775999999998 222.3936 620.2943999999998 161.2512000000001L299.5343999999998 160.4592C286.8624 196.5744 271.0224 252.648 271.0224 266.5872zM274.9824 30.7295999999999L274.6656000000001 129.7295999999999L313.1568000000001 129.8879999999999C313.1568000000001 129.8879999999999 313.1568000000001 129.8879999999999 313.1568000000001 129.8879999999999L314.4240000000001 129.8879999999999L643.8960000000001 130.68L644.2128 31.68L274.9824 30.7295999999999z" />
    <glyph glyph-name="highly-ranked"
      unicode="&#xF151;"
      horiz-adv-x="864.864" d=" M828.432 396C828.432 178.1999999999999 650.2320000000001 0 432.432 0S36.432 178.1999999999999 36.432 396S214.632 792 432.432 792C650.2320000000001 790.7328 828.432 615.0672 828.432 396zM433.6992 701.0784C265.9536 701.0784 128.6208 563.7456 128.6208 396S265.9536 90.9215999999999 433.6992 90.9215999999999S738.7776 228.2544000000001 738.7776 396S600.1776 701.0784 433.6992 701.0784zM208.4544 464.112H377.3088L433.6992 608.8896L498.0096000000001 464.112H658.3104000000001L535.0752 342.144L565.488 197.3664L433.6992 284.6448000000001L293.832 197.3664L336.6 343.4112L208.4544 464.112z" />
    <glyph glyph-name="hourglass"
      unicode="&#xF152;"
      horiz-adv-x="864.864" d=" M648.4896 557.568C679.3776 595.1088 696.4848000000001 641.8368 696.4848000000001 689.3568V792H168.3792V689.5152C168.3792 641.9952 185.328 595.1088 216.3744 557.7264L319.6512 432.432C338.1840000000001 409.9392000000001 338.0256 378.7344 319.3344000000001 356.4L217.4832000000001 234.9072C185.8032 197.208 168.3792 149.8464 168.3792 101.6928V0H696.3264V101.6927999999999C696.3264 149.8463999999999 678.9024000000001 197.208 647.2224000000001 234.9071999999999L545.5296 356.4C526.8384 378.7344 526.6800000000001 410.0976 545.2128 432.432L648.4896 557.568zM514.3248 330.1055999999999L616.176 208.7711999999999C641.6784 178.3584 655.7760000000001 140.3423999999999 655.7760000000001 101.8512V40.8671999999999H209.2464V101.8512C209.2464 140.5007999999999 223.344 178.3584 248.8464 208.7711999999999L350.6976 330.2639999999999C382.2192 367.9631999999999 382.3776 420.5519999999999 351.1728 458.4095999999999L247.896 583.704C223.0272 613.9583999999999 209.2464 651.4991999999999 209.2464 689.5151999999999V751.2911999999999H655.7760000000001V689.5151999999999C655.7760000000001 651.4991999999999 641.9952000000001 613.8 617.1264000000001 583.704L513.8496000000001 458.5679999999999C482.4864000000001 420.552 482.8032000000001 367.8048 514.3248 330.1055999999999z M264.528 671.7744C295.2576 593.6831999999999 432.432 470.448 432.432 470.448S569.7648 593.6831999999999 600.336 671.7744H264.528z" />
    <glyph glyph-name="icon-menu"
      unicode="&#xF153;"
      horiz-adv-x="864.864" d=" M0 732.2832H864.864V636.1343999999999H0V732.2832zM0 443.9952H864.864V347.8464H0V443.9952zM0 155.7072H864.864V59.5584H0V155.7072z" />
    <glyph glyph-name="image"
      unicode="&#xF154;"
      horiz-adv-x="864.864" d=" M4.752 75.24H860.1120000000001V716.76H4.752V75.24zM819.4032 676.6848V276.2496L703.6127999999999 344.9951999999999C692.3663999999999 351.6479999999999 673.992 351.6479999999999 662.7455999999999 344.9951999999999L496.5839999999998 246.3119999999999C485.3375999999998 239.6592 468.7055999999998 241.8767999999999 459.6767999999998 251.2223999999999L238.0751999999998 479.3183999999999C229.3631999999998 488.5056 214.7903999999998 488.8224 205.6031999999998 479.9519999999999C205.4447999999998 479.7936 205.1279999999998 479.4767999999999 204.9695999999998 479.3183999999999L45.4608 315.0575999999999V676.6848H819.4032z M609.9984000000001 433.8576C654.984 433.8576 691.416 469.8144 691.416 514.008S654.984 594.1584 609.9984000000001 594.1584S528.5808000000001 558.2016 528.5808000000001 514.008S565.0128 433.8576 609.9984000000001 433.8576" />
    <glyph glyph-name="info"
      unicode="&#xF155;"
      horiz-adv-x="864.864" d=" M361.1520000000001 792L361.1520000000001 647.9999998559999L503.712 647.9999998559999L503.712 792L361.1520000000001 792zM361.1520000000001 431.99999568L361.1520000000001 0L503.712 0L503.712 431.99999568L361.1520000000001 431.99999568z" />
    <glyph glyph-name="information-fill"
      unicode="&#xF156;"
      horiz-adv-x="864.864" d=" M0 792V0H864.864V792H0zM474.2496 166.9536H390.7728V416.9088H474.2496V166.9536zM474.2496 541.728H390.7728V625.2048H474.2496V541.728z" />
    <glyph glyph-name="instagram"
      unicode="&#xF157;"
      horiz-adv-x="864.864" d=" M432.2736 720.72C538.0848 720.72 550.44 720.2447999999999 592.2576 718.344C630.9072 716.6016 651.816 710.1072 665.7552 704.7216C684.2879999999999 697.4352 697.4352 689.04 711.3743999999999 675.1007999999999S733.8671999999999 648.0144 740.9952 629.4816000000001C746.3807999999999 615.5424 752.8752 594.6336 754.6176 555.9839999999999C756.5183999999999 514.1664 756.9936 501.8112 756.9936 396S756.5183999999999 277.8336 754.6176 236.016C752.8752 197.3664 746.3808 176.4576 740.9952 162.5184000000001C733.7087999999999 143.9856 725.3136 130.8384 711.3743999999999 116.8992C697.5936 103.1184 684.2879999999999 94.4064 665.7552 87.2784C651.8159999999999 81.8928000000001 630.9072 75.3984 592.2576 73.656C550.44 71.7552 538.0848 71.28 432.2736 71.28S314.1072 71.7552 272.2896 73.656C233.64 75.3984 212.7312 81.8928 198.792 87.2784C180.2592 94.5648 167.112 102.9599999999999 153.1728 116.8992C139.392 130.68 130.68 143.9856 123.552 162.5184000000001C118.1664 176.4576000000001 111.672 197.3664 109.9296 236.016C108.0288 277.8336 107.5536 290.1888 107.5536 396S108.0288 514.1664 109.9296 555.9839999999999C111.672 594.6336 118.1664 615.5424 123.552 629.4816000000001C130.8384 648.0144 139.2336 661.1616 153.1728 675.1007999999999S180.2592 697.5936 198.792 704.7216C212.7312 710.1072 233.64 716.6016 272.2896 718.344C314.1072000000001 720.4032 326.4624 720.72 432.2736 720.72M432.2736 792C324.7200000000001 792 311.2560000000001 791.5248 268.9632000000001 789.624C226.8288000000001 787.7232 198 780.912 172.9728 771.2496C146.8368000000001 761.112 124.8192 747.4896 102.8016 725.472S67.32 681.2784 57.024 655.4592C47.2032 630.2736 40.5504 601.6032 38.6496 559.3104C36.7488 517.1759999999999 36.2736 503.712 36.2736 396.1584S36.7488 275.1408 38.6496 232.848C40.5504 190.7135999999999 47.3616 161.8847999999999 57.024 136.6992C67.1616 110.5631999999999 80.784 88.5456 102.8016 66.528C124.8192 44.5104 146.9952 31.0464 172.9728 20.7504C198.1584 10.9296000000001 226.8288 4.2768 269.1216 2.376C311.4144 0.4752 324.7200000000001 0 432.432 0S553.4496 0.4752 595.7424000000001 2.376C637.8768000000001 4.2768 666.7056000000001 11.088 691.8912 20.7504C718.0272000000001 30.8879999999999 740.0448 44.5104 762.0624 66.528C784.08 88.5455999999999 797.544 110.7216 807.84 136.6992C817.6608000000001 161.8847999999999 824.3136 190.5552 826.2144000000001 232.848C828.1152000000002 275.1408 828.5904 288.4464000000001 828.5904 396.1584S828.1152000000002 517.1759999999999 826.2144000000001 559.4688C824.3136 601.6032 817.5024000000001 630.432 807.84 655.6176C797.7024000000001 681.7536 784.08 703.7712 762.0624 725.7888C740.0448 747.648 717.8688 761.2704 691.8912 771.408C666.7056000000001 781.2288 638.0352 787.8816 595.7424000000001 789.7824C553.2912 791.5248 539.8272000000001 792 432.2736 792L432.2736 792z M432.2736 599.3856000000001C320.1264 599.3856000000001 228.888 508.3056 228.888 396S320.1264 192.6144000000001 432.2736 192.6144000000001S635.6592 283.8528 635.6592 396S544.4208 599.3856000000001 432.2736 599.3856000000001zM432.2736 264.0528C359.4096 264.0528 300.3264 323.136 300.3264 396S359.4096 527.9472000000001 432.2736 527.9472000000001S564.2208 468.864 564.2208 396S505.1376 264.0528 432.2736 264.0528z M596.2176 607.4639999999999C596.2176 581.2194286880407 617.4930286880407 559.944 643.7376 559.944C669.9821713119593 559.944 691.2576 581.2194286880407 691.2576 607.4639999999999C691.2576 633.7085713119593 669.9821713119593 654.9839999999999 643.7376 654.9839999999999C617.4930286880407 654.9839999999999 596.2176 633.7085713119593 596.2176 607.4639999999999z" />
    <glyph glyph-name="linkedin"
      unicode="&#xF158;"
      horiz-adv-x="792" d=" M120.396375 580.239C68.409 580.201875 34.848 616.064625 34.848 660.688875C34.848 706.4145 69.47325 741.225375 122.401125 741.225375C175.40325 741.2625 208.02375 706.4145 208.989 660.688875C208.989 616.0398749999999 175.40325 580.239 121.39875 580.239C121.29975 580.239 120.495375 580.239 120.396375 580.239zM198.804375 516.5943749999999L43.93125 516.5943749999999L43.93125 50.7993749999999L198.804375 50.7993749999999L198.804375 516.5943749999999zM439.3001250000001 449.08875C438.706125 449.08875 438.372 449.08875 438.29775 449.08875C438.69375 449.546625 439.04025 450.066375 439.3001250000001 450.586125C439.3001250000001 454.991625 439.3001250000001 476.982 439.3001250000001 516.55725C346.4133750000001 516.55725 294.79725 516.55725 284.4765 516.55725C286.493625 472.923 284.4765 50.7746249999999 284.4765 50.7746249999999C294.79725 50.7746249999999 346.4133750000001 50.7746249999999 439.3001250000001 50.7746249999999C439.3001250000001 206.848125 439.3001250000001 293.5721250000001 439.3001250000001 310.9095C439.3001250000001 324.930375 440.253 338.666625 444.411 348.678C455.635125 376.398 481.14 405.38025 523.78425 405.38025C579.8925 405.38025 602.316 362.575125 602.316 300.007125C602.316 283.399875 602.316 200.314125 602.316 50.7746249999999C617.797125 50.7746249999999 741.670875 50.7746249999999 757.152 50.7746249999999C757.152 211.006125 757.152 300.0195 757.152 317.827125C757.189125 461.0058749999999 680.724 527.49675 578.890125 527.49675C496.744875 527.49675 459.97875 482.389875 439.3001250000001 450.586125C439.3001250000001 450.4995 439.3001250000001 449.992125 439.3001250000001 449.08875z M120.396375 580.239C68.409 580.201875 34.848 616.064625 34.848 660.688875C34.848 706.4145 69.47325 741.225375 122.401125 741.225375C175.40325 741.2625 208.02375 706.4145 208.989 660.688875C208.989 616.0398749999999 175.40325 580.239 121.39875 580.239C121.29975 580.239 120.495375 580.239 120.396375 580.239zM198.804375 516.5943749999999L43.93125 516.5943749999999L43.93125 50.7993749999999L198.804375 50.7993749999999L198.804375 516.5943749999999zM439.3001250000001 449.08875C438.706125 449.08875 438.372 449.08875 438.29775 449.08875C438.69375 449.546625 439.04025 450.066375 439.3001250000001 450.586125C439.3001250000001 454.991625 439.3001250000001 476.982 439.3001250000001 516.55725C346.4133750000001 516.55725 294.79725 516.55725 284.4765 516.55725C286.493625 472.923 284.4765 50.7746249999999 284.4765 50.7746249999999C294.79725 50.7746249999999 346.4133750000001 50.7746249999999 439.3001250000001 50.7746249999999C439.3001250000001 206.848125 439.3001250000001 293.5721250000001 439.3001250000001 310.9095C439.3001250000001 324.930375 440.253 338.666625 444.411 348.678C455.635125 376.398 481.14 405.38025 523.78425 405.38025C579.8925 405.38025 602.316 362.575125 602.316 300.007125C602.316 283.399875 602.316 200.314125 602.316 50.7746249999999C617.797125 50.7746249999999 741.670875 50.7746249999999 757.152 50.7746249999999C757.152 211.006125 757.152 300.0195 757.152 317.827125C757.189125 461.0058749999999 680.724 527.49675 578.890125 527.49675C496.744875 527.49675 459.97875 482.389875 439.3001250000001 450.586125C439.3001250000001 450.4995 439.3001250000001 449.992125 439.3001250000001 449.08875z" />
    <glyph glyph-name="list-order"
      unicode="&#xF159;"
      horiz-adv-x="864.864" d=" M189.9216 752.4H864.864V584.496H189.9216V752.4z M189.9216 479.952H864.864V312.048H189.9216V479.952z M189.9216 207.504H864.864V39.5999999999999H189.9216V207.504z M0 752.4H126.5616V584.496H0V752.4z M0 207.504H126.5616V39.5999999999999H0V207.504z" />
    <glyph glyph-name="list"
      unicode="&#xF15A;"
      horiz-adv-x="864.864" d=" M0 747.4896H864.864V581.9616H0V747.4896zM0 478.8432H864.864V313.3152H0V478.8432zM0 210.0384H864.864V44.5104H0V210.0384z" />
    <glyph glyph-name="lk"
      unicode="&#xF15B;"
      horiz-adv-x="864.864" d=" M828.2736 177.8832V614.1168C828.2736 712.1664 748.9152 792 650.3904000000001 792H214.1568C115.9488 792 36.5904 712.1664 36.5904 614.1168V177.8832C36.5904 79.8336000000001 115.9488 0 214.4736 0H650.7072C748.9152 0 828.2736 79.8335999999999 828.2736 177.8832L828.2736 177.8832zM256.4496000000001 462.8448H339.1344000000001V197.3664H256.4496000000001V462.8448L256.4496000000001 462.8448zM345.6288 546.7968C345.6288 520.1856 324.2448 498.8016 297.6336 498.8016S249.6384 520.1856 249.6384 546.7968C249.6384 572.9327999999999 271.0224 594.7919999999999 297.6336 594.7919999999999S345.6288 573.2496 345.6288 546.7968L345.6288 546.7968zM648.1728 197.3664H565.8048V326.6208000000001C565.8048 357.3504000000001 565.0128 396.9504000000001 522.72 396.9504000000001C479.6352000000001 396.9504000000001 473.2992 363.6864 473.2992 328.8384000000001V197.3664H390.9312000000001V462.8448H469.9728V426.5712H471.0816C482.0112 447.48 508.9392 469.6559999999999 549.3312 469.6559999999999C632.808 469.6559999999999 648.1727999999999 414.5328 648.1727999999999 343.0944V197.3664L648.1728 197.3664z" />
    <glyph glyph-name="location"
      unicode="&#xF15C;"
      horiz-adv-x="864.864" d=" M432.432 792C291.2976000000001 792 175.032 670.6656 175.032 517.3344C175.032 366.2208 432.432 0 432.432 0S689.832 366.3792000000001 689.832 517.3344C687.2976 668.2896000000001 571.032 792 432.432 792M432.432 440.5104C370.4976000000001 440.5104 321.0768 490.0896 321.0768 551.8656S370.656 663.2207999999999 432.432 663.2207999999999S543.7872000000001 613.6415999999999 543.7872000000001 551.8656S494.3664000000001 440.5104 432.432 440.5104" />
    <glyph glyph-name="log-out"
      unicode="&#xF15D;"
      horiz-adv-x="864.864" d=" M642.34368 199.77408A35.37072 35.37072 0 1 0 592.3368 249.7968L708.7291200000001 366.18912H299.1700800000001A35.35488 35.35488 0 1 0 299.1700800000001 436.89888H708.7291200000001L592.3368 553.2912A35.35488 35.35488 0 1 0 642.34368 603.28224L819.1022399999998 426.52368A35.37072 35.37072 0 0 0 819.1022399999998 376.53264zM284.35968 48.02688A35.33904 35.33904 0 0 0 249.084 12.6719999999999H107.64864A106.128 106.128 0 0 0 32.83632 43.29072A104.544 104.544 0 0 0 1.584 117.73872V684.288A106.128 106.128 0 0 0 66.38544 782.06832A104.81328 104.81328 0 0 0 107.64864 790.416H249.084A35.35488 35.35488 0 0 0 249.084 719.70624H107.64864A35.40240000000001 35.40240000000001 0 0 1 72.29376 684.288V117.8020799999999C72.29376 98.79408 88.13376 83.38176 107.64864 83.38176H249.084A35.35488 35.35488 0 0 0 284.4072000000001 48.02688z" />
    </font>
</defs>
</svg>
